<?xml version="1.0" standalone="no"?>
<!DOCTYPE svg PUBLIC "-//W3C//DTD SVG 1.1//EN" "http://www.w3.org/Graphics/SVG/1.1/DTD/svg11.dtd" >
<svg xmlns="http://www.w3.org/2000/svg" xmlns:xlink="http://www.w3.org/1999/xlink" version="1.1">
<metadata></metadata>
<defs>
<font id="archivo_blackregular" horiz-adv-x="1366" >
<font-face units-per-em="2048" ascent="1638" descent="-410" />
<missing-glyph horiz-adv-x="681" />
<glyph unicode="&#xfb01;" d="M16 805v276h140v45q0 209 102 296t293 87q41 0 100.5 -11t96.5 -25v-240h-74q-66 0 -88.5 -24.5t-22.5 -84.5v-43h185v-276h-185v-805h-407v805h-140zM834 0v1081h407v-1081h-407zM834 1208v277h407v-277h-407z" />
<glyph unicode="&#xfb02;" d="M16 805v276h140v45q0 209 102 296t293 87q41 0 100.5 -11t96.5 -25v-240h-74q-66 0 -88.5 -24.5t-22.5 -84.5v-43h185v-276h-185v-805h-407v805h-140zM836 0v1485h407v-1485h-407z" />
<glyph horiz-adv-x="0" />
<glyph unicode="&#xd;" horiz-adv-x="681" />
<glyph horiz-adv-x="0" />
<glyph horiz-adv-x="0" />
<glyph unicode=" "  horiz-adv-x="681" />
<glyph unicode="&#x09;" horiz-adv-x="681" />
<glyph unicode="&#xa0;" horiz-adv-x="681" />
<glyph unicode="!" horiz-adv-x="681" d="M96 1409h490l-117 -905h-260zM137 0v379h406v-379h-406z" />
<glyph unicode="&#x22;" horiz-adv-x="1024" d="M121 1108v301h334v-301l-97 -293h-141zM569 1108v301h334v-301l-98 -293h-139z" />
<glyph unicode="#" horiz-adv-x="1351" d="M41 326v223h258l57 252h-221v227h266l91 406h249l-92 -406h228l90 406h245l-94 -406h191v-227h-232l-53 -252h217v-223h-274l-76 -349h-240l76 349h-235l-74 -349h-246l74 349h-205zM543 547h233l60 252h-238z" />
<glyph unicode="$" d="M141 518h379v-8q2 -70 58.5 -97.5t119.5 -27.5q170 0 170 80q0 41 -53 59.5t-174 38.5q-145 25 -238.5 53.5t-163 97t-69.5 191.5q0 172 115.5 258t310.5 103l-14 282h231l-16 -280q188 -15 311 -100t123 -244h-379q-2 57 -46 80.5t-99 23.5q-147 0 -148 -70 q0 -39 51.5 -55t167.5 -35q143 -20 239.5 -47.5t168 -98.5t71.5 -198q0 -186 -125.5 -276t-334.5 -105l16 -280h-231l14 282q-197 20 -326 113.5t-129 259.5z" />
<glyph unicode="%" horiz-adv-x="2048" d="M94 1065q0 174 92.5 271.5t284.5 97.5q193 0 284 -97.5t91 -271.5q0 -170 -91 -267.5t-284 -97.5t-285 97.5t-92 267.5zM348 1034q0 -82 30 -130t93 -48q121 0 121 178v66q0 178 -121 178q-63 0 -93 -48t-30 -130v-66zM473 0l858 1407h223l-854 -1407h-227zM1184 340 q0 174 92 271.5t285 97.5q192 0 283 -97.5t91 -271.5q0 -170 -91 -267.5t-283 -97.5q-193 0 -285 97.5t-92 267.5zM1438 309q0 -82 29.5 -130t93.5 -48q121 0 120 178v66q0 178 -120 178q-64 0 -93.5 -48t-29.5 -130v-66z" />
<glyph unicode="&#x26;" horiz-adv-x="1820" d="M154 393q0 123 64.5 212t180.5 126v8q-88 33 -146 113t-58 178q0 111 74.5 203t224 146.5t360.5 54.5q209 0 362.5 -51.5t235.5 -139.5t82 -194v-52h-363q0 63 -74.5 105.5t-215.5 42.5q-131 0 -200 -50.5t-69 -121.5q0 -63 42 -96t104 -33h213v-252h-258 q-63 0 -103.5 -38t-40.5 -110q0 -84 71 -132t224 -48q307 0 307 182v398h648v-252h-281v-137q0 -229 -163 -354.5t-509 -125.5q-356 0 -534 115t-178 303z" />
<glyph unicode="'" horiz-adv-x="569" d="M117 1108v301h334v-301l-99 -293h-139z" />
<glyph unicode="(" horiz-adv-x="796" d="M113 590q0 252 96 491.5t272 427.5h246q-121 -188 -196.5 -445t-75.5 -474q0 -219 75.5 -474t196.5 -444h-246q-176 188 -272 428t-96 490z" />
<glyph unicode=")" horiz-adv-x="796" d="M70 -328q121 188 196.5 443.5t75.5 474.5q0 217 -76 474t-196 445h245q177 -188 273 -427.5t96 -491.5q0 -250 -96 -489.5t-273 -428.5h-245z" />
<glyph unicode="*" horiz-adv-x="1138" d="M195 930l229 104l-229 107l96 164l207 -146l-25 250h191l-25 -248l207 144l96 -164l-229 -107l229 -104l-96 -166l-207 145l25 -250h-191l25 250l-207 -145z" />
<glyph unicode="+" horiz-adv-x="1351" d="M135 406v270h406v405h270v-405h406v-270h-406v-406h-270v406h-406z" />
<glyph unicode="," horiz-adv-x="681" d="M123 -375l168 375h-166v408h434v-385l-215 -398h-221z" />
<glyph unicode="-" horiz-adv-x="681" d="M80 401v324h522v-324h-522z" />
<glyph unicode="." horiz-adv-x="681" d="M125 0v408h434v-408h-434z" />
<glyph unicode="/" horiz-adv-x="569" d="M-4 -98l328 1605h247l-325 -1605h-250z" />
<glyph unicode="0" d="M84 705q0 354 134 541.5t466 187.5q330 0 464 -187.5t134 -541.5t-134 -542t-464 -188q-332 0 -466 187.5t-134 542.5zM487 604q0 -188 45.5 -270t151.5 -82t149.5 82t43.5 270v203q0 188 -43 269t-150 81q-106 0 -151.5 -82t-45.5 -268v-203z" />
<glyph unicode="1" d="M215 0v315h334v637h-334v238q137 8 307 72.5t297 148.5h137v-1096h322v-315h-1063z" />
<glyph unicode="2" d="M100 0v98q0 109 50.5 194t146.5 171q98 86 283 233q147 117 206.5 178.5t59.5 120.5q0 63 -44 106.5t-132 43.5q-92 0 -145.5 -53.5t-53.5 -139.5v-41h-365q-2 16 -2 45q0 221 155 349.5t450 128.5q165 0 287 -52.5t188.5 -148.5t66.5 -223q0 -119 -59 -215.5 t-149.5 -170t-247.5 -180.5q-88 -57 -144 -98h617v-346h-1168z" />
<glyph unicode="3" d="M86 381v43h360q0 -168 213 -168t213 188q0 72 -39.5 110t-103.5 38h-149v252h116q63 0 103.5 38t40.5 109q0 68 -48.5 115t-132.5 47q-88 0 -137 -45t-49 -111h-342v52q0 106 66.5 194t194.5 139.5t302 51.5q168 0 292 -51.5t188.5 -138.5t64.5 -193t-57.5 -191.5 t-147.5 -120.5v-8q117 -37 181.5 -128t64.5 -220q-8 -180 -156.5 -294t-437.5 -114q-199 0 -334 53.5t-200.5 145.5t-65.5 207z" />
<glyph unicode="4" d="M47 289v305q111 160 219.5 387t173.5 453h402q-15 -107 -99 -265.5t-199.5 -317.5t-215.5 -261h405v293q63 90 129 213t86 202h174v-708h197v-301h-197v-289h-389v289h-686z" />
<glyph unicode="5" d="M80 455h360q0 -84 57.5 -140.5t161.5 -56.5t161 58.5t57 150.5q0 94 -56.5 152.5t-158.5 58.5q-78 0 -118 -25.5t-57.5 -48t-21.5 -29.5l-324 46l60 788h975v-348h-670l-17 -213q0 4 41 27.5t109 44t152 20.5q225 0 357 -128t132 -351q0 -135 -71.5 -246t-203 -175.5 t-303.5 -64.5q-301 0 -461.5 129t-160.5 351z" />
<glyph unicode="6" d="M84 670q0 403 148.5 583.5t461.5 180.5q256 0 409.5 -124t153.5 -352h-364v15q0 80 -49 132t-144 52q-96 0 -150 -66.5t-54 -179.5v-118q59 53 141 79.5t156 26.5q141 0 254.5 -50t179 -147.5t65.5 -234.5q0 -233 -160.5 -362.5t-437.5 -129.5q-309 0 -459.5 169 t-150.5 526zM496 453q0 -96 51 -148.5t147 -52.5q98 0 150.5 50t52.5 147q0 96 -52 150t-149 54q-96 0 -148 -52t-52 -148z" />
<glyph unicode="7" d="M92 1057v352h1188v-186q-233 -289 -367.5 -553t-134.5 -549v-121h-454q0 279 119.5 548t324.5 509h-676z" />
<glyph unicode="8" d="M84 387q0 117 55.5 189.5t167.5 136.5v8q-86 61 -129 124.5t-43 172.5q0 131 72 224t195.5 142.5t277.5 49.5t278.5 -49.5t197.5 -142.5t73 -224q0 -109 -43 -172.5t-129 -124.5v-8q113 -63 169 -136t56 -190q0 -199 -162 -305.5t-440 -106.5q-279 0 -437.5 106.5 t-158.5 305.5zM492 420q0 -80 51 -124t137 -44t140 44t54 124t-56 124t-138 44q-80 0 -134 -44t-54 -124zM492 1001q0 -78 52 -115.5t136 -37.5t139 38t55 115q0 80 -53 118t-141 38t-138 -38t-50 -118z" />
<glyph unicode="9" d="M74 942q0 233 160.5 362.5t437.5 129.5q309 0 459.5 -169t150.5 -526q0 -403 -148.5 -583.5t-461.5 -180.5q-256 0 -409.5 124t-153.5 352h364v-15q0 -80 49 -132t144 -52q96 0 150 66.5t54 179.5v118q-59 -53 -141 -79.5t-156 -26.5q-141 0 -254.5 50t-179 147.5 t-65.5 234.5zM469 956q0 -96 51 -148t148 -52q98 0 150 50t52 146t-52 150.5t-148 54.5q-97 0 -149 -52t-52 -149z" />
<glyph unicode=":" horiz-adv-x="681" d="M125 0v408h434v-408h-434zM125 672v409h434v-409h-434z" />
<glyph unicode=";" horiz-adv-x="681" d="M123 -375l168 375h-166v408h434v-385l-215 -398h-221zM125 672v409h434v-409h-434z" />
<glyph unicode="&#x3c;" horiz-adv-x="1351" d="M137 387v293l1075 416v-293l-735 -271l735 -268v-291z" />
<glyph unicode="=" horiz-adv-x="1351" d="M135 174v270h1082v-270h-1082zM135 637v270h1082v-270h-1082z" />
<glyph unicode="&#x3e;" horiz-adv-x="1351" d="M139 -27v291l735 268l-735 271v293l1075 -416v-293z" />
<glyph unicode="?" horiz-adv-x="1251" d="M76 1001q0 131 71.5 228.5t199.5 151t288 53.5q156 0 274.5 -51.5t184 -146.5t65.5 -220q0 -80 -34.5 -142.5t-82 -105.5t-118.5 -94q-59 -45 -87 -72t-28 -55v-43h-350v102q0 49 30.5 89t96.5 102q68 59 103.5 106t35.5 105q0 59 -37 101t-98 42q-133 0 -133 -172 q0 -37 2 -55h-377q-2 14 -4 32.5t-2 44.5zM434 0v379h406v-379h-406z" />
<glyph unicode="@" horiz-adv-x="1515" d="M41 545q0 461 200.5 675t538.5 214q318 0 506.5 -189.5t188.5 -582.5q0 -201 -52.5 -326t-133.5 -178.5t-171 -53.5q-158 0 -223 109q-53 -49 -118.5 -79t-155.5 -30q-291 0 -291 234q0 121 59.5 184.5t173 87t297.5 23.5v41q0 47 -27.5 73.5t-70.5 26.5t-73 -18.5 t-30 -61.5h-305q-2 8 -2 21q0 117 107.5 186.5t306.5 69.5q180 0 294 -63.5t114 -205.5v-325q0 -61 59 -62q35 0 68.5 73t33.5 276q0 330 -149.5 487.5t-407.5 157.5q-295 0 -446.5 -191.5t-151.5 -574.5q0 -362 132 -542.5t405 -180.5q66 0 158 19.5t139 45.5v-135 q-53 -23 -144.5 -39t-152.5 -16q-324 0 -500 209t-176 641zM639 377q0 -80 86 -80q55 0 95 34t40 83v69q-112 0 -166.5 -28.5t-54.5 -77.5z" />
<glyph unicode="A" horiz-adv-x="1593" d="M20 0l515 1409h526l514 -1409h-479l-60 199h-493l-60 -199h-463zM637 514h305l-147 502h-9z" />
<glyph unicode="B" horiz-adv-x="1593" d="M152 0v1409h938q106 0 195 -44t141.5 -124t52.5 -178q0 -260 -236 -328v-8q268 -61 268 -352q0 -111 -54 -196t-148.5 -132t-206.5 -47h-950zM604 328h344q45 0 75 31.5t30 78.5v21q0 47 -30 78.5t-75 31.5h-344v-241zM604 860h311q45 0 75 32t30 79v20q0 45 -31 77 t-74 32h-311v-240z" />
<glyph unicode="C" horiz-adv-x="1593" d="M92 705q0 360 185.5 544.5t545.5 184.5q314 0 496 -157t182 -448h-432q0 123 -64.5 195t-183.5 72q-137 0 -201.5 -86t-64.5 -240v-131q0 -152 64.5 -239t197.5 -87q131 0 198.5 68t67.5 190h418q0 -289 -177 -442.5t-501 -153.5q-360 0 -545.5 184.5t-185.5 545.5z" />
<glyph unicode="D" horiz-adv-x="1593" d="M152 0v1409h610h2q737 0 737 -704q0 -705 -739 -705h-610zM604 338h150q285 0 284 305v123q0 305 -284 305h-150v-733z" />
<glyph unicode="E" horiz-adv-x="1478" d="M152 0v1409h1218v-338h-766v-194h656v-324h-656v-215h780v-338h-1232z" />
<glyph unicode="F" d="M152 0v1409h1138v-338h-686v-242h590v-323h-590v-506h-452z" />
<glyph unicode="G" horiz-adv-x="1705" d="M92 705q0 358 200 543.5t568 185.5q203 0 364.5 -61.5t257 -181.5t95.5 -292h-432q0 88 -78 142.5t-188 54.5q-160 0 -242 -85t-82 -241v-131q0 -156 82 -241t242 -85q111 0 188.5 52.5t77.5 134.5h-320v286h752v-786h-234l-45 139q-193 -164 -503 -164 q-350 0 -526.5 183.5t-176.5 546.5z" />
<glyph unicode="H" horiz-adv-x="1705" d="M152 0v1409h452v-514h498v514h452v-1409h-452v535h-498v-535h-452z" />
<glyph unicode="I" horiz-adv-x="796" d="M172 0v1409h453v-1409h-453z" />
<glyph unicode="J" d="M47 489v19h424v-16q0 -96 36 -137.5t109 -41.5q74 0 110 41t36 138v917h452v-920q0 -264 -150.5 -389t-432.5 -125q-283 0 -433.5 125t-150.5 389z" />
<glyph unicode="K" horiz-adv-x="1705" d="M152 0v1409h452v-602l502 602h561l-506 -580l516 -829h-534l-293 516l-246 -201v-315h-452z" />
<glyph unicode="L" d="M152 0v1409h452v-1049h723v-360h-1175z" />
<glyph unicode="M" horiz-adv-x="1933" d="M123 0v1409h639l213 -813h8l211 813h616v-1409h-448v508q0 94 7 193.5t15.5 167t10.5 85.5h-9l-260 -954h-354l-262 952h-8q2 -18 11 -84.5t17.5 -166t8.5 -193.5v-508h-416z" />
<glyph unicode="N" horiz-adv-x="1705" d="M152 0v1409h395l592 -694v694h415v-1409h-395l-592 684v-684h-415z" />
<glyph unicode="O" horiz-adv-x="1705" d="M92 705q0 358 197.5 543.5t562.5 185.5t563.5 -186.5t198.5 -542.5t-198.5 -543t-563.5 -187t-562.5 185.5t-197.5 544.5zM555 639q0 -150 76 -238t221 -88t222 88t77 238v131q0 150 -77 238t-222 88t-221 -88t-76 -238v-131z" />
<glyph unicode="P" horiz-adv-x="1478" d="M152 0v1409h790q131 0 233.5 -60.5t160 -166t57.5 -236.5v-26q0 -131 -57.5 -238t-160 -167t-233.5 -60h-338v-455h-452zM604 784h187q72 0 107.5 37t35.5 101v16q0 66 -36 101.5t-107 35.5h-187v-291z" />
<glyph unicode="Q" horiz-adv-x="1705" d="M92 705q0 358 197.5 543.5t562.5 185.5t563.5 -186.5t198.5 -542.5q0 -238 -89 -401t-259 -247l321 -325h-538l-218 243q-356 6 -547.5 191.5t-191.5 538.5zM555 639q0 -150 76 -238t221 -88t222 88t77 238v131q0 150 -77 238t-222 88t-221 -88t-76 -238v-131z" />
<glyph unicode="R" horiz-adv-x="1593" d="M152 0v1409h862q152 0 259 -58.5t161.5 -157.5t54.5 -216q0 -129 -69.5 -233.5t-202.5 -153.5l313 -590h-508l-250 514h-168v-514h-452zM604 827h297q53 0 90 38t37 93q0 56 -37 92.5t-90 36.5h-297v-260z" />
<glyph unicode="S" horiz-adv-x="1478" d="M88 477h428q0 -106 55.5 -142t171.5 -36q86 0 142.5 18.5t56.5 75.5q0 51 -62.5 77t-203.5 54q-172 37 -284.5 77t-196.5 132t-84 250q0 231 179 341t453 110q271 0 445 -110t178 -325v-24h-424v8q0 61 -45 102t-137 41q-90 0 -138.5 -26.5t-48.5 -65.5q0 -55 66 -81.5 t211 -55.5q170 -35 279.5 -73t191.5 -124t84 -233q0 -250 -169 -371t-452 -121q-330 0 -513 111t-183 391z" />
<glyph unicode="T" horiz-adv-x="1478" d="M47 1049v360h1376v-360h-460v-1049h-453v1049h-463z" />
<glyph unicode="U" horiz-adv-x="1705" d="M152 567v842h452v-836q0 -119 63.5 -189.5t184.5 -70.5t185.5 72t64.5 188v836h452v-842q0 -288 -182 -440t-518 -152t-519 152t-183 440z" />
<glyph unicode="V" horiz-adv-x="1593" d="M35 1409h483l283 -942h8l285 942h462l-497 -1409h-524z" />
<glyph unicode="W" horiz-adv-x="2048" d="M10 1409h471l162 -799h8l160 799h446l170 -799h9l151 799h451l-330 -1409h-498l-182 858h-8l-182 -858h-498z" />
<glyph unicode="X" horiz-adv-x="1593" d="M8 0l504 745l-455 664h547l213 -360h8l215 360h506l-456 -666l503 -743h-549l-260 438h-8l-260 -438h-508z" />
<glyph unicode="Y" horiz-adv-x="1593" d="M14 1409h521l270 -469h8l270 469h494l-551 -862v-547h-453v547z" />
<glyph unicode="Z" horiz-adv-x="1478" d="M49 0v145l653 926h-604v338h1301v-145l-654 -926h670v-338h-1366z" />
<glyph unicode="[" horiz-adv-x="796" d="M135 -328v1837h559v-211h-233v-1415h233v-211h-559z" />
<glyph unicode="\" horiz-adv-x="569" d="M-4 1507h248l327 -1605h-249z" />
<glyph unicode="]" horiz-adv-x="796" d="M135 -117h234v1415h-234v211h559v-1837h-559v211z" />
<glyph unicode="^" horiz-adv-x="1351" d="M113 690l415 719h293l416 -719h-291l-268 434l-270 -434h-295z" />
<glyph unicode="_" horiz-adv-x="1024" d="M0 -131h1024v-127h-1024v127z" />
<glyph unicode="`" horiz-adv-x="681" d="M47 1477l4 8h395l189 -273h-260z" />
<glyph unicode="a" d="M61 279q0 158 85 240.5t245 113.5t418 31v53q0 63 -44 96t-114 33q-63 0 -109 -22.5t-46 -71.5v-9h-402q-2 10 -2 29q0 154 146.5 244t418.5 90q248 0 404 -83t156 -269v-422q0 -35 16 -57.5t49 -22.5h74v-236q-6 -4 -32 -13t-73 -18.5t-108 -9.5q-119 0 -196 36 t-105 100q-78 -61 -174.5 -98.5t-225.5 -37.5q-381 0 -381 304zM469 332q0 -102 139 -103q80 0 140.5 43t60.5 107v92q-174 0 -257 -38t-83 -101z" />
<glyph unicode="b" d="M125 0v1485h407v-504q118 125 304 125q219 0 337.5 -142.5t118.5 -420.5q0 -281 -118.5 -424.5t-337.5 -143.5q-225 0 -344 179l-35 -154h-332zM528 506q0 -102 45 -166t136 -64q176 0 176 209v109q0 211 -176 211q-91 0 -136 -64.5t-45 -167.5v-67z" />
<glyph unicode="c" d="M74 541q0 279 161.5 422t446.5 143q266 0 431 -113.5t165 -347.5h-395q0 184 -201 184t-201 -231v-117q0 -229 209 -229t209 188h379q0 -236 -165 -350.5t-431 -114.5q-285 0 -446.5 143.5t-161.5 422.5z" />
<glyph unicode="d" d="M74 543q0 279 118.5 421t337.5 142q186 0 304 -125v504h407v-1485h-332l-35 154q-119 -178 -344 -179q-219 0 -337.5 143.5t-118.5 424.5zM481 485q0 -209 176 -209q90 0 135.5 63.5t45.5 166.5v67q0 102 -45 167t-136 65q-176 0 -176 -211v-109z" />
<glyph unicode="e" d="M74 541q0 279 161.5 422t446.5 143q297 0 453.5 -139.5t156.5 -425.5v-70h-811q0 -117 52.5 -176t164.5 -59q102 0 150.5 43t48.5 114h395q0 -197 -149.5 -307.5t-435.5 -110.5q-301 0 -467 140.5t-166 425.5zM483 664h398q0 84 -48.5 133t-134.5 49q-192 0 -215 -182z " />
<glyph unicode="f" horiz-adv-x="796" d="M16 805v276h152v45q0 209 102.5 296t292.5 87q45 0 112.5 -11t108.5 -25v-240h-94q-66 0 -90.5 -24.5t-24.5 -84.5v-43h209v-276h-209v-805h-407v805h-152z" />
<glyph unicode="g" d="M10 -166q0 80 49.5 144.5t122.5 97.5q-49 35 -77.5 84t-28.5 106q0 80 59.5 144.5t147.5 87.5q-80 51 -127 117.5t-47 140.5q0 188 152.5 269t404.5 81q111 0 178 -12q100 63 130 115.5t30 74.5h335q0 -125 -62.5 -192.5t-186.5 -100.5q59 -45 93 -105.5t34 -127.5 q0 -172 -130.5 -260t-324.5 -88h-156q-129 0 -129 -60q0 -29 29 -46t100 -17h369q180 0 272 -94.5t92 -251.5q0 -117 -61 -201t-165.5 -127t-227.5 -43h-602q-74 0 -136.5 35t-99.5 95t-37 134zM397 -98q0 -47 31 -76t76 -29h319q45 0 77 28t32 75t-31 73.5t-78 26.5h-319 q-47 0 -77 -25.5t-30 -72.5zM508 758q0 -68 40 -101.5t114 -33.5t115.5 33.5t41.5 101.5t-42 101.5t-115 33.5q-68 0 -111 -35t-43 -100z" />
<glyph unicode="h" d="M123 0v1485h407v-516q66 65 154 101t184 36q188 0 282.5 -104.5t94.5 -301.5v-700h-407v651q0 70 -36 112t-102 42q-76 0 -123 -49t-47 -121v-635h-407z" />
<glyph unicode="i" horiz-adv-x="681" d="M137 0v1081h408v-1081h-408zM137 1208v277h408v-277h-408z" />
<glyph unicode="j" horiz-adv-x="681" d="M-84 -150h107q115 0 114 132v1099h408v-1140q0 -197 -89 -284t-286 -87q-53 0 -131 10t-123 27v243zM137 1208v277h408v-277h-408z" />
<glyph unicode="k" d="M123 0v1487h407v-819l347 413h475l-400 -436l410 -645h-463l-227 371l-142 -138v-233h-407z" />
<glyph unicode="l" horiz-adv-x="681" d="M137 0v1485h408v-1485h-408z" />
<glyph unicode="m" horiz-adv-x="2048" d="M123 0v1081h334l26 -161q61 86 163 136t214 50q244 0 328 -186q63 86 162.5 136t208.5 50q184 0 276 -105.5t92 -300.5v-700h-407v651q0 70 -34 112t-95 42q-72 0 -117 -49t-45 -121v-635h-408v651q0 70 -33.5 112t-95.5 42q-72 0 -117 -49t-45 -121v-635h-407z" />
<glyph unicode="n" d="M123 0v1081h334l26 -163q63 86 167 137t218 51q189 0 283 -104.5t94 -301.5v-700h-407v651q0 70 -36 112t-102 42q-76 0 -123 -49t-47 -121v-635h-407z" />
<glyph unicode="o" d="M74 541q0 279 161.5 422t446.5 143t447.5 -144.5t162.5 -420.5t-162.5 -421t-447.5 -145t-446.5 143.5t-161.5 422.5zM481 481q0 -229 201 -229q203 0 203 229v117q0 231 -203 231q-201 0 -201 -231v-117z" />
<glyph unicode="p" d="M125 -403v1484h332l35 -153q119 178 344 178q219 0 337.5 -143.5t118.5 -423.5q0 -279 -118.5 -421.5t-337.5 -142.5q-188 0 -304 123v-501h-407zM528 508q0 -102 45 -167t136 -65q176 0 176 211v109q0 209 -176 209q-91 0 -136 -63.5t-45 -166.5v-67z" />
<glyph unicode="q" d="M74 539q0 281 118.5 424t337.5 143q225 0 344 -178l35 153h332v-1484h-407v501q-115 -123 -304 -123q-219 0 -337.5 142.5t-118.5 421.5zM481 487q0 -211 176 -211q90 0 135.5 65t45.5 167v67q0 102 -45 166t-136 64q-176 0 -176 -209v-109z" />
<glyph unicode="r" horiz-adv-x="909" d="M123 0v1081h334l26 -163q37 94 117 142t180 48q47 0 84 -11.5t37 -13.5v-342h-131q-127 0 -183.5 -65.5t-56.5 -194.5v-481h-407z" />
<glyph unicode="s" horiz-adv-x="1251" d="M66 352h378v-8q2 -70 58.5 -97.5t120.5 -27.5q170 0 170 80q0 41 -53.5 59.5t-174.5 38.5q-145 25 -238.5 53.5t-163 97t-69.5 191.5q0 199 150.5 283t392.5 84q217 0 367.5 -85t150.5 -263h-379q0 59 -53 84q-37 20 -92 20q-147 0 -148 -69q0 -39 51.5 -55.5 t167.5 -35.5q143 -20 239.5 -47.5t168.5 -98.5t72 -198q0 -207 -155 -295t-404 -88q-143 0 -270.5 40t-207 124t-79.5 213z" />
<glyph unicode="t" horiz-adv-x="909" d="M55 805v276h168l88 328h303v-328h230v-276h-230v-412q0 -74 25 -107.5t90 -33.5h115v-240q-49 -16 -127 -26.5t-135 -10.5q-180 0 -277.5 65.5t-97.5 223.5v541h-152z" />
<glyph unicode="u" d="M119 381v700h407v-651q0 -70 36 -112t102 -42q76 0 123 49.5t47 120.5v635h407v-1081h-334l-26 164q-63 -88 -167 -138.5t-218 -50.5q-188 0 -282.5 104.5t-94.5 301.5z" />
<glyph unicode="v" horiz-adv-x="1251" d="M0 1081h438l199 -673h14l199 673h401l-413 -1081h-428z" />
<glyph unicode="w" horiz-adv-x="1933" d="M0 1081h438l164 -639h14l170 639h406l164 -639h14l166 639h397l-397 -1081h-397l-168 602h-8l-170 -602h-398z" />
<glyph unicode="x" d="M8 0l416 573l-375 508h479l172 -286h9l172 286h450l-381 -518l406 -563h-475l-205 340h-8l-207 -340h-453z" />
<glyph unicode="y" horiz-adv-x="1251" d="M0 1081h438l207 -719h14l191 719h401l-385 -1048q-84 -228 -205.5 -345.5t-341.5 -117.5q-133 0 -235 37v243h164q154 0 182 150z" />
<glyph unicode="z" horiz-adv-x="1138" d="M41 0v133l455 672h-430v276h1011v-127l-459 -678h478v-276h-1055z" />
<glyph unicode="{" horiz-adv-x="796" d="M61 512v162q70 0 124.5 29.5t54.5 87.5v489q0 111 86 170t202 59h187v-200q-152 0 -156 -84l-20 -412q-10 -211 -207 -211v-18q197 0 207 -211l20 -414q4 -86 156 -86v-201h-187q-117 0 -202.5 59.5t-85.5 170.5v497q0 57 -51.5 85t-127.5 28z" />
<glyph unicode="|" horiz-adv-x="569" d="M158 -432v1919h254v-1919h-254z" />
<glyph unicode="}" horiz-adv-x="796" d="M82 -127q152 0 156 86l20 414q10 211 207 211v18q-197 0 -207 211l-20 412q-4 84 -156 84v200h186q117 0 203 -59t86 -170v-489q0 -57 54.5 -87t123.5 -30v-162q-76 0 -127 -27.5t-51 -85.5v-497q0 -111 -86 -170.5t-203 -59.5h-186v201z" />
<glyph unicode="~" horiz-adv-x="1351" d="M80 383v266q0 4 51 47t127 80t166 37q59 0 114.5 -17.5t135.5 -52.5q78 -35 135 -52t119 -17q90 0 165.5 37t127 80t51.5 47v-267q0 -4 -51.5 -47t-127 -79.5t-165.5 -36.5q-59 0 -114.5 17t-135.5 52t-135.5 52.5t-118.5 17.5q-90 0 -166 -37t-127 -80t-51 -47z" />
<glyph unicode="&#xa1;" horiz-adv-x="681" d="M96 -328l113 906h260l117 -906h-490zM137 702v379h406v-379h-406z" />
<glyph unicode="&#xa2;" d="M74 707q0 252 135 394t377 167l-15 280h232l-17 -282q226 -21 359 -133.5t133 -321.5h-395q0 184 -201 184t-201 -231v-117q0 -229 209 -229t209 188h379q0 -211 -134 -325.5t-358 -135.5l17 -282h-232l15 282q-242 25 -377 166.5t-135 395.5z" />
<glyph unicode="&#xa3;" d="M63 565v260h193v185q0 188 132 306t392 118q168 0 287 -55.5t179.5 -152t60.5 -214.5v-58h-408v58q0 49 -35 83.5t-84 34.5t-83.5 -34.5t-34.5 -83.5v-187h196v-260h-199l-41 -264h578v-301h-1071v301h131v264h-193z" />
<glyph unicode="&#xa4;" horiz-adv-x="1351" d="M141 289l119 119q-45 51 -69.5 125.5t-24.5 160.5t24.5 164t69.5 123l-119 119l129 129l117 -117q47 41 126 65.5t161 24.5q84 0 160.5 -24.5t117.5 -61.5l119 119l139 -139l-114 -115q39 -43 62.5 -122t23.5 -165q0 -84 -23.5 -161.5t-66.5 -129.5l114 -114l-123 -123 l-118 119q-45 -45 -124 -72t-167 -27q-86 0 -164 25t-127 70l-117 -117zM412 694q0 -119 75.5 -200.5t186.5 -81.5q115 0 188.5 83t73.5 199q0 117 -74 200t-188 83q-113 0 -187.5 -82t-74.5 -201z" />
<glyph unicode="&#xa5;" d="M4 1409h471l217 -469h8l218 469h444l-256 -469h201v-190h-306l-53 -99h359v-190h-414v-461h-412v461h-415v190h358l-55 99h-303v190h198z" />
<glyph unicode="&#xa6;" horiz-adv-x="569" d="M160 369h254v-799h-254v799zM160 688v799h254v-799h-254z" />
<glyph unicode="&#xa7;" d="M111 522q0 109 57 186.5t127 125.5q-154 104 -154 249q0 125 82 204t204 113t249 34t247.5 -30t202.5 -100.5t82 -183.5v-20h-370q0 47 -44 69.5t-100 22.5q-61 0 -108 -18.5t-47 -55.5q0 -51 62.5 -87t197.5 -87q139 -51 231 -98t158.5 -124t66.5 -187q0 -109 -57 -186 t-129 -126q156 -106 156 -250q0 -125 -82 -203.5t-204 -112.5t-249 -34t-247.5 30t-202.5 100.5t-82 183.5v20h370q0 -47 44 -69.5t100 -22.5q61 0 108 18.5t47 55.5q0 51 -62.5 86.5t-197.5 87.5q-139 51 -231 98t-158.5 124t-66.5 187zM453 616q0 -76 80.5 -128 t250.5 -121q18 -8 35 -15.5t31 -13.5q63 51 63 102q0 76 -80.5 128.5t-250.5 121.5q-18 8 -35 15.5t-31 13.5q-63 -52 -63 -103z" />
<glyph unicode="&#xa8;" horiz-adv-x="681" d="M-41 1200v285h311v-285h-311zM410 1200v285h311v-285h-311z" />
<glyph unicode="&#xa9;" horiz-adv-x="1638" d="M90 707q0 203 93 368.5t259 262t377 96.5t378 -96.5t261 -262.5t94 -368q0 -203 -94 -370t-261 -264.5t-378 -97.5t-377 97.5t-259 264.5t-93 370zM248 707q0 -178 69.5 -314.5t198.5 -210t303 -73.5t304 73.5t201 209.5t71 315q0 178 -71 313t-201 209t-304 74t-303 -74 t-198.5 -209t-69.5 -313zM389 705q0 217 111.5 327.5t328.5 110.5q189 0 298.5 -94.5t109.5 -268.5h-260q0 74 -39 117t-111 43q-160 0 -159 -197v-77q0 -92 38.5 -144.5t118.5 -52.5t120 41t40 115h252q0 -174 -106.5 -266.5t-301.5 -92.5q-217 0 -328.5 110.5 t-111.5 328.5z" />
<glyph unicode="&#xaa;" horiz-adv-x="819" d="M25 1012q0 94 56 144t160.5 68.5t272.5 18.5v33q0 37 -28.5 56.5t-73.5 19.5q-43 0 -73 -14.5t-30 -47.5h-262q-2 6 -2 19q0 92 96.5 146t274.5 54q159 0 261.5 -50t102.5 -163v-252q0 -20 11.5 -34.5t31.5 -14.5q16 0 30.5 2t18.5 4v-141q-4 -2 -21 -9t-48 -14.5 t-70 -7.5q-78 0 -128 21.5t-68 60.5q-113 -82 -263 -82q-250 0 -249 183zM293 1044q0 -61 90 -61q53 0 92 25.5t39 64.5v55q-113 0 -167 -23.5t-54 -60.5z" />
<glyph unicode="&#xab;" d="M123 664l342 417h293l-283 -417l283 -420h-293zM606 664l342 417h293l-283 -417l283 -420h-293z" />
<glyph unicode="&#xac;" horiz-adv-x="1351" d="M102 686v318h1135v-689h-315v371h-820z" />
<glyph unicode="&#xad;" horiz-adv-x="681" d="M80 401v324h522v-324h-522zM80 401z" />
<glyph unicode="&#xae;" horiz-adv-x="1638" d="M90 707q0 203 93 368.5t259 262t377 96.5t378 -96.5t261 -262.5t94 -368q0 -203 -94 -370t-261 -264.5t-378 -97.5t-377 97.5t-259 264.5t-93 370zM248 707q0 -178 69.5 -314.5t198.5 -210t303 -73.5t304 73.5t201 209.5t71 315q0 178 -71 313t-201 209t-304 74t-303 -74 t-198.5 -209t-69.5 -313zM475 283v845h463q98 0 167 -59t69 -154q0 -86 -42 -137t-96 -73v-11q70 -18 104 -71.5t34 -126.5q0 -57 11 -99.5t52 -52.5v-51q-59 -25 -150 -25q-96 0 -143 35t-47 117q0 74 -20.5 118t-90.5 44h-38v-299h-273zM748 770h71q33 0 55.5 23.5 t22.5 60.5q0 35 -22.5 58.5t-55.5 23.5h-71v-166z" />
<glyph unicode="&#xaf;" horiz-adv-x="681" d="M18 1239v205h648v-205h-648z" />
<glyph unicode="&#xb0;" horiz-adv-x="819" d="M102 1126q0 82 41 153t112 113t155 42q82 0 152.5 -42t112.5 -113t42 -153q0 -84 -42 -154.5t-112.5 -111.5t-152.5 -41q-84 0 -154 41t-112 111.5t-42 154.5zM281 1124q0 -51 37.5 -89t89.5 -38q53 0 90 38t37 89q0 53 -38 90t-91 37q-50 0 -87.5 -37.5t-37.5 -89.5z " />
<glyph unicode="&#xb1;" horiz-adv-x="1351" d="M135 0v270h1082v-270h-1082zM135 733v271h406v372h270v-372h406v-271h-406v-373h-270v373h-406z" />
<glyph unicode="&#xb2;" horiz-adv-x="819" d="M33 649v60q0 66 32.5 117t96.5 102q55 45 186 141q96 68 135 104.5t39 71.5q0 39 -29.5 64.5t-86.5 25.5q-59 0 -94.5 -31.5t-35.5 -82.5v-25h-239q-2 10 -2 27q0 133 102.5 209.5t294.5 76.5q164 0 260 -69.5t96 -184.5q0 -72 -38.5 -129t-96 -100t-161.5 -108 q-12 -6 -97 -60h404v-209h-766z" />
<glyph unicode="&#xb3;" horiz-adv-x="819" d="M31 879v26h237q0 -100 140 -100q139 0 139 113q0 43 -26.5 65.5t-67.5 22.5h-99v151h78q41 0 67.5 22.5t26.5 65.5q0 39 -31.5 67.5t-86.5 28.5q-57 0 -90 -26.5t-33 -65.5h-224v31q0 63 44.5 115.5t127 83t197.5 30.5q166 0 262 -65.5t96 -163.5q0 -63 -37.5 -113.5 t-97.5 -70.5v-9q78 -23 120 -77t42 -129q-6 -109 -103.5 -176.5t-287.5 -67.5q-193 0 -293 67.5t-100 174.5z" />
<glyph unicode="&#xb4;" horiz-adv-x="681" d="M61 1212l189 273h395l4 -8l-327 -265h-261z" />
<glyph unicode="&#xb5;" d="M119 0zM119 -401v1482h407v-651q0 -70 36 -112t102 -42q76 0 123 49.5t47 120.5v635h407v-1081h-334l-26 164q-59 -82 -153.5 -131t-201.5 -56v-378h-407z" />
<glyph unicode="&#xb6;" horiz-adv-x="1740" d="M223 965q0 121 59.5 223t161 161.5t222.5 59.5h858v-248h-135v-1491h-263v1491h-217v-1491h-262v852q-117 4 -214 64.5t-153.5 160t-56.5 218.5z" />
<glyph unicode="&#xb7;" horiz-adv-x="681" d="M145 481v375h392v-375h-392z" />
<glyph unicode="&#xb8;" horiz-adv-x="681" d="M96 -289q23 -2 98.5 -9t141.5 -7q82 0 82 63q0 33 -17.5 49.5t-60.5 16.5h-78l39 256h127l-22 -139q190 -19 190 -183q0 -104 -75 -147t-167 -43q-72 0 -143.5 9t-114.5 24v110z" />
<glyph unicode="&#xb9;" horiz-adv-x="819" d="M61 647v189h220v383h-220v141q90 6 203 45t195 88h90v-657h211v-189h-699z" />
<glyph unicode="&#xba;" horiz-adv-x="819" d="M25 1169q0 166 106.5 253t290.5 87q186 0 292.5 -87t106.5 -253t-106.5 -253t-292.5 -87q-184 0 -290.5 87.5t-106.5 252.5zM291 1135q0 -139 131 -140q133 0 133 140v69q0 139 -133 139q-131 0 -131 -139v-69z" />
<glyph unicode="&#xbb;" d="M125 244l283 420l-283 417h293l342 -417l-342 -420h-293zM608 244l283 420l-283 417h293l342 -417l-342 -420h-293z" />
<glyph unicode="&#xbc;" horiz-adv-x="2048" d="M78 573v189h219v383h-219v141q90 6 202.5 45t194.5 88h90v-657h211v-189h-698zM532 -25l840 1459h197l-842 -1459h-195zM1169 174v182q72 96 143.5 232.5t114.5 271.5h263q-13 -94 -121.5 -249.5t-214.5 -256.5h266v174q41 57 84 130t55 120h115v-424h129v-180h-129v-174 h-254v174h-451z" />
<glyph unicode="&#xbd;" horiz-adv-x="2048" d="M78 575v189h219v383h-219v141q90 6 202.5 45t194.5 88h90v-657h211v-189h-698zM532 -25l840 1459h197l-842 -1459h-195zM1231 0v59q0 66 32.5 117t96.5 103q55 45 186 141q96 68 135 104.5t39 71.5q0 39 -29.5 64.5t-86.5 25.5q-59 0 -94 -31.5t-35 -83.5v-24h-240 q-2 10 -2 26q0 133 102.5 210t294.5 77q164 0 260.5 -69.5t96.5 -184.5q0 -72 -39 -129t-96.5 -100t-161.5 -109q-12 -6 -97 -59h404v-209h-766z" />
<glyph unicode="&#xbe;" horiz-adv-x="2048" d="M57 805v26h238q0 -100 139 -100t139 113q0 43 -26.5 65.5t-67.5 22.5h-98v151h78q41 0 67.5 22.5t26.5 65.5q0 39 -32 68t-87 29q-57 0 -90 -27t-33 -65h-223v30q0 63 44 115.5t127 83.5t198 31q166 0 262 -65.5t96 -164.5q0 -63 -38 -113.5t-97 -70.5v-8q78 -23 120 -77 t42 -130q-6 -109 -103.5 -176.5t-287.5 -67.5q-193 0 -293.5 67.5t-100.5 174.5zM532 -25l840 1459h197l-842 -1459h-195zM1153 174v182q72 96 143.5 232.5t114.5 271.5h262q-12 -94 -120.5 -249.5t-215.5 -256.5h267v174q41 57 84 130t55 120h115v-424h129v-180h-129v-174 h-254v174h-451z" />
<glyph unicode="&#xbf;" horiz-adv-x="1251" d="M94 63q0 80 35 142.5t82 105.5t119 95q59 45 86.5 72.5t27.5 53.5v43h351v-102q0 -49 -31 -89t-96 -101q-68 -59 -104 -106.5t-36 -104.5q0 -59 37 -101.5t99 -42.5q133 0 133 172q0 37 -2 56h376q2 -14 4.5 -33t2.5 -45q0 -131 -72 -228.5t-200 -150.5t-288 -53 q-156 0 -274.5 51t-184 146.5t-65.5 219.5zM414 700v379h405v-379h-405z" />
<glyph unicode="&#xc0;" horiz-adv-x="1593" d="M20 0l515 1409h526l514 -1409h-479l-60 199h-493l-60 -199h-463zM406 1804l4 8h395l188 -272h-260zM637 514h305l-147 502h-9z" />
<glyph unicode="&#xc1;" horiz-adv-x="1593" d="M20 0l515 1409h526l514 -1409h-479l-60 199h-493l-60 -199h-463zM600 1540l188 272h396l4 -8l-328 -264h-260zM637 514h305l-147 502h-9z" />
<glyph unicode="&#xc2;" horiz-adv-x="1593" d="M20 0l515 1409h526l514 -1409h-479l-60 199h-493l-60 -199h-463zM381 1516l285 296h262l284 -296h-266l-151 157l-152 -157h-262zM637 514h305l-147 502h-9z" />
<glyph unicode="&#xc3;" horiz-adv-x="1593" d="M20 0l515 1409h526l514 -1409h-479l-60 199h-493l-60 -199h-463zM342 1520q0 74 37 141.5t102.5 109t147.5 41.5q45 0 86 -10t106 -33q51 -18 88 -28t74 -10t64.5 22.5t37.5 58.5h166q0 -73 -36.5 -140.5t-102 -109.5t-147.5 -42q-45 0 -86 10t-107 33q-51 18 -88 28.5 t-74 10.5t-64.5 -23t-37.5 -59h-166zM637 514h305l-147 502h-9z" />
<glyph unicode="&#xc4;" horiz-adv-x="1593" d="M20 0l515 1409h526l514 -1409h-479l-60 199h-493l-60 -199h-463zM416 1528v284h311v-284h-311zM637 514h305l-147 502h-9zM866 1528v284h312v-284h-312z" />
<glyph unicode="&#xc5;" horiz-adv-x="1593" d="M20 0l515 1409h526l514 -1409h-479l-60 199h-493l-60 -199h-463zM573 1731q0 92 66 157.5t158 65.5t157.5 -65.5t65.5 -157.5q0 -90 -65.5 -156t-157.5 -66t-158 64.5t-66 157.5zM637 514h305l-147 502h-9zM715 1729q0 -35 23.5 -57.5t58.5 -22.5q37 0 59.5 23.5 t22.5 60.5q0 35 -24 57t-58 22q-37 0 -59.5 -23.5t-22.5 -59.5z" />
<glyph unicode="&#xc6;" horiz-adv-x="2048" d="M-31 0l596 1409h1391v-338h-748l45 -194h588v-324h-512l49 -215h592v-338h-944l-45 199h-479l-70 -199h-463zM614 514h297l-110 502h-8z" />
<glyph unicode="&#xc7;" horiz-adv-x="1593" d="M92 705q0 360 185.5 544.5t545.5 184.5q314 0 496 -157t182 -448h-432q0 123 -64.5 195t-183.5 72q-137 0 -201.5 -86t-64.5 -240v-131q0 -152 64.5 -239t197.5 -87q131 0 198.5 68t67.5 190h418q0 -279 -167 -432t-472 -164l-6 -34q190 -18 191 -183q0 -104 -75 -147 t-167 -43q-72 0 -143.5 9t-114.5 24v110q23 -2 98.5 -9t140.5 -7q82 0 82 63q0 33 -17 49.5t-60 16.5h-78l22 153q-317 20 -480 205t-163 523z" />
<glyph unicode="&#xc8;" horiz-adv-x="1478" d="M152 0v1409h1218v-338h-766v-194h656v-324h-656v-215h780v-338h-1232zM399 1804l4 8h396l188 -272h-260z" />
<glyph unicode="&#xc9;" horiz-adv-x="1478" d="M152 0v1409h1218v-338h-766v-194h656v-324h-656v-215h780v-338h-1232zM594 1540l188 272h396l4 -8l-328 -264h-260z" />
<glyph unicode="&#xca;" horiz-adv-x="1478" d="M152 0v1409h1218v-338h-766v-194h656v-324h-656v-215h780v-338h-1232zM375 1516l284 296h263l284 -296h-266l-152 157l-151 -157h-262z" />
<glyph unicode="&#xcb;" horiz-adv-x="1478" d="M152 0v1409h1218v-338h-766v-194h656v-324h-656v-215h780v-338h-1232zM410 1528v284h311v-284h-311zM860 1528v284h311v-284h-311z" />
<glyph unicode="&#xcc;" horiz-adv-x="796" d="M8 1804l4 8h396l188 -272h-260zM172 0v1409h453v-1409h-453z" />
<glyph unicode="&#xcd;" horiz-adv-x="796" d="M172 0v1409h453v-1409h-453zM203 1540l188 272h395l5 -8l-328 -264h-260z" />
<glyph unicode="&#xce;" horiz-adv-x="796" d="M-16 1516l284 296h262l285 -296h-266l-152 157l-151 -157h-262zM172 0v1409h453v-1409h-453z" />
<glyph unicode="&#xcf;" horiz-adv-x="796" d="M18 1528v284h312v-284h-312zM172 0v1409h453v-1409h-453zM469 1528v284h311v-284h-311z" />
<glyph unicode="&#xd0;" horiz-adv-x="1593" d="M2 623v200h150v586h610q739 0 739 -704q0 -705 -739 -705h-610v623h-150zM604 338h150q285 0 284 305v123q0 305 -284 305h-150v-248h199v-200h-199v-285z" />
<glyph unicode="&#xd1;" horiz-adv-x="1705" d="M152 0v1409h395l592 -694v694h415v-1409h-395l-592 684v-684h-415zM397 1520q0 74 37 141.5t102.5 109t147.5 41.5q45 0 87 -10t108 -33q51 -18 88 -28t71 -10q39 0 65.5 22.5t39.5 58.5h166q0 -73 -37 -140.5t-102.5 -109.5t-147.5 -42q-45 0 -87 10t-108 33 q-51 18 -88 28.5t-71 10.5q-39 0 -66 -23t-39 -59h-166z" />
<glyph unicode="&#xd2;" horiz-adv-x="1705" d="M92 705q0 358 197.5 543.5t562.5 185.5t563.5 -186.5t198.5 -542.5t-198.5 -543t-563.5 -187t-562.5 185.5t-197.5 544.5zM463 1804l4 8h393l191 -272h-260zM555 639q0 -150 76 -238t221 -88t222 88t77 238v131q0 150 -77 238t-222 88t-221 -88t-76 -238v-131z" />
<glyph unicode="&#xd3;" horiz-adv-x="1705" d="M92 705q0 358 197.5 543.5t562.5 185.5t563.5 -186.5t198.5 -542.5t-198.5 -543t-563.5 -187t-562.5 185.5t-197.5 544.5zM555 639q0 -150 76 -238t221 -88t222 88t77 238v131q0 150 -77 238t-222 88t-221 -88t-76 -238v-131zM655 1540l191 272h393l4 -8l-325 -264h-263z " />
<glyph unicode="&#xd4;" horiz-adv-x="1705" d="M92 705q0 358 197.5 543.5t562.5 185.5t563.5 -186.5t198.5 -542.5t-198.5 -543t-563.5 -187t-562.5 185.5t-197.5 544.5zM436 1516l287 296h260l287 -296h-266l-152 157l-154 -157h-262zM555 639q0 -150 76 -238t221 -88t222 88t77 238v131q0 150 -77 238t-222 88 t-221 -88t-76 -238v-131z" />
<glyph unicode="&#xd5;" horiz-adv-x="1705" d="M92 705q0 358 197.5 543.5t562.5 185.5t563.5 -186.5t198.5 -542.5t-198.5 -543t-563.5 -187t-562.5 185.5t-197.5 544.5zM397 1520q0 74 37 141.5t102.5 109t147.5 41.5q45 0 87 -10t108 -33q51 -18 88 -28t71 -10q39 0 65.5 22.5t39.5 58.5h166q0 -73 -37 -140.5 t-102.5 -109.5t-147.5 -42q-45 0 -87 10t-108 33q-51 18 -88 28.5t-71 10.5q-39 0 -66 -23t-39 -59h-166zM555 639q0 -150 76 -238t221 -88t222 88t77 238v131q0 150 -77 238t-222 88t-221 -88t-76 -238v-131z" />
<glyph unicode="&#xd6;" horiz-adv-x="1705" d="M92 705q0 358 197.5 543.5t562.5 185.5t563.5 -186.5t198.5 -542.5t-198.5 -543t-563.5 -187t-562.5 185.5t-197.5 544.5zM471 1528v284h311v-284h-311zM555 639q0 -150 76 -238t221 -88t222 88t77 238v131q0 150 -77 238t-222 88t-221 -88t-76 -238v-131zM924 1528v284 h311v-284h-311z" />
<glyph unicode="&#xd7;" horiz-adv-x="1351" d="M139 197l346 344l-346 344l193 192l344 -346l344 346l192 -192l-346 -344l346 -344l-192 -193l-344 346l-344 -346z" />
<glyph unicode="&#xd8;" horiz-adv-x="1705" d="M92 705q0 358 197.5 543.5t562.5 185.5q240 0 414 -84l108 135h221l-188 -232q207 -183 207 -548q0 -356 -198.5 -543t-563.5 -187q-248 0 -414 82l-106 -131h-221l184 230q-203 186 -203 549zM555 639q0 -80 20 -139l447 551q-72 45 -170 45q-145 0 -221 -88t-76 -238 v-131zM682 358q72 -45 170 -45q145 0 222 88t77 238v131q0 76 -23 139z" />
<glyph unicode="&#xd9;" horiz-adv-x="1705" d="M152 567v842h452v-836q0 -119 63.5 -189.5t184.5 -70.5t185.5 72t64.5 188v836h452v-842q0 -288 -182 -440t-518 -152t-519 152t-183 440zM463 1804l4 8h393l191 -272h-260z" />
<glyph unicode="&#xda;" horiz-adv-x="1705" d="M152 567v842h452v-836q0 -119 63.5 -189.5t184.5 -70.5t185.5 72t64.5 188v836h452v-842q0 -288 -182 -440t-518 -152t-519 152t-183 440zM655 1540l191 272h393l4 -8l-325 -264h-263z" />
<glyph unicode="&#xdb;" horiz-adv-x="1705" d="M152 567v842h452v-836q0 -119 63.5 -189.5t184.5 -70.5t185.5 72t64.5 188v836h452v-842q0 -288 -182 -440t-518 -152t-519 152t-183 440zM436 1516l287 296h260l287 -296h-266l-152 157l-154 -157h-262z" />
<glyph unicode="&#xdc;" horiz-adv-x="1705" d="M152 567v842h452v-836q0 -119 63.5 -189.5t184.5 -70.5t185.5 72t64.5 188v836h452v-842q0 -288 -182 -440t-518 -152t-519 152t-183 440zM471 1528v284h311v-284h-311zM924 1528v284h311v-284h-311z" />
<glyph unicode="&#xdd;" horiz-adv-x="1593" d="M14 1409h521l270 -469h8l270 469h494l-551 -862v-547h-453v547zM600 1540l188 272h396l4 -8l-328 -264h-260z" />
<glyph unicode="&#xde;" horiz-adv-x="1478" d="M152 0v1409h452v-205h338q131 0 233.5 -60.5t160 -166t57.5 -236.5v-26q0 -131 -57.5 -237.5t-160 -167t-233.5 -60.5h-338v-250h-452zM604 580h187q72 0 107.5 36.5t35.5 100.5v16q0 66 -36 101.5t-107 35.5h-187v-290z" />
<glyph unicode="&#xdf;" d="M137 0v1059q0 154 79 255t205 148t267 47q221 0 378 -91t157 -296q0 -100 -52.5 -183t-140.5 -120v-10q109 -39 178.5 -143.5t69.5 -227.5q0 -213 -138.5 -325.5t-365.5 -112.5h-131v279h57q70 0 120 56t50 134q0 82 -50 139.5t-120 57.5h-57v288h55q57 0 95 40t38 100 q0 61 -38.5 101t-104.5 40t-104.5 -40t-38.5 -101v-1094h-408z" />
<glyph unicode="&#xe0;" d="M61 279q0 158 85 240.5t245 113.5t418 31v53q0 63 -44 96t-114 33q-63 0 -109 -22.5t-46 -71.5v-9h-402q-2 10 -2 29q0 154 146.5 244t418.5 90q248 0 404 -83t156 -269v-422q0 -35 16 -57.5t49 -22.5h74v-236q-6 -4 -32 -13t-73 -18.5t-108 -9.5q-119 0 -196 36 t-105 100q-78 -61 -174.5 -98.5t-225.5 -37.5q-381 0 -381 304zM266 1477l4 8h396l188 -273h-258zM469 332q0 -102 139 -103q80 0 140.5 43t60.5 107v92q-174 0 -257 -38t-83 -101z" />
<glyph unicode="&#xe1;" d="M61 279q0 158 85 240.5t245 113.5t418 31v53q0 63 -44 96t-114 33q-63 0 -109 -22.5t-46 -71.5v-9h-402q-2 10 -2 29q0 154 146.5 244t418.5 90q248 0 404 -83t156 -269v-422q0 -35 16 -57.5t49 -22.5h74v-236q-6 -4 -32 -13t-73 -18.5t-108 -9.5q-119 0 -196 36 t-105 100q-78 -61 -174.5 -98.5t-225.5 -37.5q-381 0 -381 304zM461 1212l188 273h395l5 -8l-326 -265h-262zM469 332q0 -102 139 -103q80 0 140.5 43t60.5 107v92q-174 0 -257 -38t-83 -101z" />
<glyph unicode="&#xe2;" d="M61 279q0 158 85 240.5t245 113.5t418 31v53q0 63 -44 96t-114 33q-63 0 -109 -22.5t-46 -71.5v-9h-402q-2 10 -2 29q0 154 146.5 244t418.5 90q248 0 404 -83t156 -269v-422q0 -35 16 -57.5t49 -22.5h74v-236q-6 -4 -32 -13t-73 -18.5t-108 -9.5q-119 0 -196 36 t-105 100q-78 -61 -174.5 -98.5t-225.5 -37.5q-381 0 -381 304zM266 1188l287 297h260l287 -297h-266l-152 158l-154 -158h-262zM469 332q0 -102 139 -103q80 0 140.5 43t60.5 107v92q-174 0 -257 -38t-83 -101z" />
<glyph unicode="&#xe3;" d="M61 279q0 158 85 240.5t245 113.5t418 31v53q0 63 -44 96t-114 33q-63 0 -109 -22.5t-46 -71.5v-9h-402q-2 10 -2 29q0 154 146.5 244t418.5 90q248 0 404 -83t156 -269v-422q0 -35 16 -57.5t49 -22.5h74v-236q-6 -4 -32 -13t-73 -18.5t-108 -9.5q-119 0 -196 36 t-105 100q-78 -61 -174.5 -98.5t-225.5 -37.5q-381 0 -381 304zM227 1192q0 74 37 141.5t102.5 109.5t147.5 42q45 0 87 -10.5t108 -32.5q51 -18 88 -28.5t71 -10.5q39 0 66 22.5t39 59.5h166q0 -74 -37 -141.5t-102.5 -109.5t-147.5 -42q-45 0 -87 10t-108 33 q-51 18 -88 28.5t-71 10.5q-39 0 -65.5 -22.5t-39.5 -59.5h-166zM469 332q0 -102 139 -103q80 0 140.5 43t60.5 107v92q-174 0 -257 -38t-83 -101z" />
<glyph unicode="&#xe4;" d="M61 279q0 158 85 240.5t245 113.5t418 31v53q0 63 -44 96t-114 33q-63 0 -109 -22.5t-46 -71.5v-9h-402q-2 10 -2 29q0 154 146.5 244t418.5 90q248 0 404 -83t156 -269v-422q0 -35 16 -57.5t49 -22.5h74v-236q-6 -4 -32 -13t-73 -18.5t-108 -9.5q-119 0 -196 36 t-105 100q-78 -61 -174.5 -98.5t-225.5 -37.5q-381 0 -381 304zM301 1200v285h311v-285h-311zM469 332q0 -102 139 -103q80 0 140.5 43t60.5 107v92q-174 0 -257 -38t-83 -101zM754 1200v285h311v-285h-311z" />
<glyph unicode="&#xe5;" d="M61 279q0 158 85 240.5t245 113.5t418 31v53q0 63 -44 96t-114 33q-63 0 -109 -22.5t-46 -71.5v-9h-402q-2 10 -2 29q0 154 146.5 244t418.5 90q248 0 404 -83t156 -269v-422q0 -35 16 -57.5t49 -22.5h74v-236q-6 -4 -32 -13t-73 -18.5t-108 -9.5q-119 0 -196 36 t-105 100q-78 -61 -174.5 -98.5t-225.5 -37.5q-381 0 -381 304zM461 1403q0 92 64.5 157.5t156.5 65.5t157.5 -64.5t65.5 -158.5q0 -90 -64.5 -155.5t-158.5 -65.5q-90 0 -155.5 64.5t-65.5 156.5zM469 332q0 -102 139 -103q80 0 140.5 43t60.5 107v92q-174 0 -257 -38 t-83 -101zM600 1401q0 -35 23.5 -57.5t58.5 -22.5q37 0 60.5 23.5t23.5 60.5q0 35 -24.5 57.5t-59.5 22.5t-58.5 -23.5t-23.5 -60.5z" />
<glyph unicode="&#xe6;" horiz-adv-x="2048" d="M61 299q0 147 85 227t245 109t418 29v53q0 63 -42 96t-108 33q-68 0 -115.5 -22.5t-47.5 -71.5v-9h-402q-2 10 -2 29q0 154 146.5 244t418.5 90q262 0 404 -98q147 98 360 98q570 0 570 -565v-70h-770q0 -117 47 -176t149 -59q92 0 135 43t43 114h396 q0 -197 -139.5 -307.5t-405.5 -110.5q-322 0 -479 150q-201 -150 -443 -150q-227 0 -345 73t-118 251zM469 332q0 -102 139 -103q80 0 140.5 43t60.5 107v92q-174 0 -257 -38t-83 -101zM1223 664h356q0 86 -45 134t-125 48q-166 0 -186 -182z" />
<glyph unicode="&#xe7;" d="M74 541q0 279 161.5 422t446.5 143q266 0 431 -113.5t165 -347.5h-395q0 184 -201 184t-201 -231v-117q0 -229 209 -229t209 188h379q0 -219 -145.5 -333.5t-384.5 -129.5l-5 -36q190 -18 191 -183q0 -104 -75 -147t-169 -43q-70 0 -141.5 9t-116.5 24v110q23 -2 98.5 -9 t143.5 -7q82 0 82 63q0 66 -78 66h-80l25 153q-258 16 -403.5 159t-145.5 405z" />
<glyph unicode="&#xe8;" d="M74 541q0 279 161.5 422t446.5 143q297 0 453.5 -139.5t156.5 -425.5v-70h-811q0 -117 52.5 -176t164.5 -59q102 0 150.5 43t48.5 114h395q0 -197 -149.5 -307.5t-435.5 -110.5q-301 0 -467 140.5t-166 425.5zM293 1477l4 8h393l191 -273h-260zM483 664h398 q0 84 -48.5 133t-134.5 49q-192 0 -215 -182z" />
<glyph unicode="&#xe9;" d="M74 541q0 279 161.5 422t446.5 143q297 0 453.5 -139.5t156.5 -425.5v-70h-811q0 -117 52.5 -176t164.5 -59q102 0 150.5 43t48.5 114h395q0 -197 -149.5 -307.5t-435.5 -110.5q-301 0 -467 140.5t-166 425.5zM483 664h398q0 84 -48.5 133t-134.5 49q-192 0 -215 -182z M485 1212l191 273h393l4 -8l-325 -265h-263z" />
<glyph unicode="&#xea;" d="M74 541q0 279 161.5 422t446.5 143q297 0 453.5 -139.5t156.5 -425.5v-70h-811q0 -117 52.5 -176t164.5 -59q102 0 150.5 43t48.5 114h395q0 -197 -149.5 -307.5t-435.5 -110.5q-301 0 -467 140.5t-166 425.5zM266 1188l287 297h260l287 -297h-266l-152 158l-154 -158 h-262zM483 664h398q0 84 -48.5 133t-134.5 49q-192 0 -215 -182z" />
<glyph unicode="&#xeb;" d="M74 541q0 279 161.5 422t446.5 143q297 0 453.5 -139.5t156.5 -425.5v-70h-811q0 -117 52.5 -176t164.5 -59q102 0 150.5 43t48.5 114h395q0 -197 -149.5 -307.5t-435.5 -110.5q-301 0 -467 140.5t-166 425.5zM301 1200v285h311v-285h-311zM483 664h398q0 84 -48.5 133 t-134.5 49q-192 0 -215 -182zM754 1200v285h311v-285h-311z" />
<glyph unicode="&#xec;" horiz-adv-x="681" d="M-49 1477l4 8h393l191 -273h-260zM137 0v1081h408v-1081h-408z" />
<glyph unicode="&#xed;" horiz-adv-x="681" d="M137 0v1081h408v-1081h-408zM143 1212l191 273h393l4 -8l-325 -265h-263z" />
<glyph unicode="&#xee;" horiz-adv-x="681" d="M-76 1188l287 297h260l287 -297h-266l-152 158l-154 -158h-262zM137 0v1081h408v-1081h-408z" />
<glyph unicode="&#xef;" horiz-adv-x="681" d="M-41 1200v285h311v-285h-311zM137 0v1081h408v-1081h-408zM412 1200v285h311v-285h-311z" />
<glyph unicode="&#xf0;" d="M74 541q0 158 65.5 278.5t186 187t284.5 66.5q78 0 135 -16q-41 63 -102 143l-338 -39v160l201 22q-92 84 -170 134l2 8h405q11 -6 51 -30.5t89 -65.5l284 32v-159l-139 -17q264 -309 264 -704q0 -276 -162.5 -421t-447.5 -145t-446.5 143.5t-161.5 422.5zM481 481 q0 -229 201 -229q203 0 203 229v117q0 231 -203 231q-201 0 -201 -231v-117z" />
<glyph unicode="&#xf1;" d="M123 0v1081h334l26 -163q63 86 167 137t218 51q189 0 283 -104.5t94 -301.5v-700h-407v651q0 70 -36 112t-102 42q-76 0 -123 -49t-47 -121v-635h-407zM227 1192q0 74 37 141.5t102.5 109.5t147.5 42q45 0 87 -10.5t108 -32.5q51 -18 88 -28.5t71 -10.5q39 0 66 22.5 t39 59.5h166q0 -74 -37 -141.5t-102.5 -109.5t-147.5 -42q-45 0 -87 10t-108 33q-51 18 -88 28.5t-71 10.5q-39 0 -65.5 -22.5t-39.5 -59.5h-166z" />
<glyph unicode="&#xf2;" d="M74 541q0 279 161.5 422t446.5 143t447.5 -144.5t162.5 -420.5t-162.5 -421t-447.5 -145t-446.5 143.5t-161.5 422.5zM293 1477l4 8h393l191 -273h-260zM481 481q0 -229 201 -229q203 0 203 229v117q0 231 -203 231q-201 0 -201 -231v-117z" />
<glyph unicode="&#xf3;" d="M74 541q0 279 161.5 422t446.5 143t447.5 -144.5t162.5 -420.5t-162.5 -421t-447.5 -145t-446.5 143.5t-161.5 422.5zM481 481q0 -229 201 -229q203 0 203 229v117q0 231 -203 231q-201 0 -201 -231v-117zM485 1212l191 273h393l4 -8l-325 -265h-263z" />
<glyph unicode="&#xf4;" d="M74 541q0 279 161.5 422t446.5 143t447.5 -144.5t162.5 -420.5t-162.5 -421t-447.5 -145t-446.5 143.5t-161.5 422.5zM266 1188l287 297h260l287 -297h-266l-152 158l-154 -158h-262zM481 481q0 -229 201 -229q203 0 203 229v117q0 231 -203 231q-201 0 -201 -231v-117z " />
<glyph unicode="&#xf5;" d="M74 541q0 279 161.5 422t446.5 143t447.5 -144.5t162.5 -420.5t-162.5 -421t-447.5 -145t-446.5 143.5t-161.5 422.5zM227 1192q0 74 37 141.5t102.5 109.5t147.5 42q45 0 87 -10.5t108 -32.5q51 -18 88 -28.5t71 -10.5q39 0 66 22.5t39 59.5h166q0 -74 -37 -141.5 t-102.5 -109.5t-147.5 -42q-45 0 -87 10t-108 33q-51 18 -88 28.5t-71 10.5q-39 0 -65.5 -22.5t-39.5 -59.5h-166zM481 481q0 -229 201 -229q203 0 203 229v117q0 231 -203 231q-201 0 -201 -231v-117z" />
<glyph unicode="&#xf6;" d="M74 541q0 279 161.5 422t446.5 143t447.5 -144.5t162.5 -420.5t-162.5 -421t-447.5 -145t-446.5 143.5t-161.5 422.5zM301 1200v285h311v-285h-311zM481 481q0 -229 201 -229q203 0 203 229v117q0 231 -203 231q-201 0 -201 -231v-117zM754 1200v285h311v-285h-311z" />
<glyph unicode="&#xf7;" horiz-adv-x="1351" d="M135 401v271h1082v-271h-1082zM545 31v268h268v-268h-268zM545 772v268h268v-268h-268z" />
<glyph unicode="&#xf8;" d="M74 541q0 279 161.5 422t446.5 143q188 0 322 -64l81 103h189l-146 -182q164 -148 164 -422q0 -276 -162.5 -421t-447.5 -145q-172 0 -303 54l-96 -121h-189l158 196q-178 150 -178 437zM481 481q0 -45 6 -82l318 398q-49 33 -123 32q-201 0 -201 -231v-117zM575 274 q46 -22 107 -22q203 0 203 229v117q0 20 -4 57z" />
<glyph unicode="&#xf9;" d="M119 381v700h407v-651q0 -70 36 -112t102 -42q76 0 123 49.5t47 120.5v635h407v-1081h-334l-26 164q-63 -88 -167 -138.5t-218 -50.5q-188 0 -282.5 104.5t-94.5 301.5zM293 1477l4 8h393l191 -273h-260z" />
<glyph unicode="&#xfa;" d="M119 381v700h407v-651q0 -70 36 -112t102 -42q76 0 123 49.5t47 120.5v635h407v-1081h-334l-26 164q-63 -88 -167 -138.5t-218 -50.5q-188 0 -282.5 104.5t-94.5 301.5zM485 1212l191 273h393l4 -8l-325 -265h-263z" />
<glyph unicode="&#xfb;" d="M119 381v700h407v-651q0 -70 36 -112t102 -42q76 0 123 49.5t47 120.5v635h407v-1081h-334l-26 164q-63 -88 -167 -138.5t-218 -50.5q-188 0 -282.5 104.5t-94.5 301.5zM266 1188l287 297h260l287 -297h-266l-152 158l-154 -158h-262z" />
<glyph unicode="&#xfc;" d="M119 381v700h407v-651q0 -70 36 -112t102 -42q76 0 123 49.5t47 120.5v635h407v-1081h-334l-26 164q-63 -88 -167 -138.5t-218 -50.5q-188 0 -282.5 104.5t-94.5 301.5zM301 1200v285h311v-285h-311zM754 1200v285h311v-285h-311z" />
<glyph unicode="&#xfd;" horiz-adv-x="1251" d="M0 1081h438l207 -719h14l191 719h401l-385 -1048q-84 -228 -205.5 -345.5t-341.5 -117.5q-133 0 -235 37v243h164q154 0 182 150zM428 1212l190 273h396l4 -8l-328 -265h-262z" />
<glyph unicode="&#xfe;" d="M125 -403v1888h407v-506q116 127 304 127q219 0 337.5 -143.5t118.5 -423.5q0 -279 -118.5 -421.5t-337.5 -142.5q-188 0 -304 123v-501h-407zM528 508q0 -102 45 -167t136 -65q176 0 176 211v109q0 209 -176 209q-91 0 -136 -63.5t-45 -166.5v-67z" />
<glyph unicode="&#xff;" horiz-adv-x="1251" d="M0 1081h438l207 -719h14l191 719h401l-385 -1048q-84 -228 -205.5 -345.5t-341.5 -117.5q-133 0 -235 37v243h164q154 0 182 150zM246 1200v285h309v-285h-309zM696 1200v285h312v-285h-312z" />
<glyph unicode="&#x152;" horiz-adv-x="2048" d="M72 705q0 346 146.5 537.5t414.5 191.5q238 0 381 -154v129h964v-338h-567v-194h457v-324h-457v-215h582v-338h-979v127q-145 -152 -381 -152q-268 0 -414.5 191.5t-146.5 538.5zM500 639q0 -150 65.5 -238t192.5 -88t192.5 88t65.5 238v131q0 150 -65.5 238t-192.5 88 t-192.5 -88t-65.5 -238v-131z" />
<glyph unicode="&#x153;" horiz-adv-x="2048" d="M59 541q0 279 157 422t431 143q231 0 381 -102q150 102 377 102q289 0 439.5 -139.5t150.5 -425.5v-70h-770q0 -117 47 -176t149 -59q92 0 135 43t43 114h396q0 -197 -144.5 -307.5t-420.5 -110.5q-250 0 -402 103q-147 -102 -381 -103q-274 0 -431 143.5t-157 422.5z M467 481q0 -229 180 -229q182 0 182 229v117q0 231 -182 231q-180 0 -180 -231v-117zM1227 664h356q0 84 -43 133t-119 49q-174 0 -194 -182z" />
<glyph unicode="&#x178;" horiz-adv-x="1593" d="M14 1409h521l270 -469h8l270 469h494l-551 -862v-547h-453v547zM416 1528v284h311v-284h-311zM866 1528v284h312v-284h-312z" />
<glyph unicode="&#x2c6;" horiz-adv-x="681" d="M-72 1188l285 297h262l285 -297h-266l-152 158l-152 -158h-262z" />
<glyph unicode="&#x2dc;" horiz-adv-x="681" d="M-115 1192q0 74 37 141.5t102.5 109.5t147.5 42q45 0 86 -10.5t107 -32.5q51 -18 87.5 -28.5t73.5 -10.5t64.5 22.5t38.5 59.5h166q0 -74 -37 -141.5t-102.5 -109.5t-147.5 -42q-45 0 -86 10t-107 33q-51 18 -88 28.5t-73 10.5q-37 0 -65 -22.5t-38 -59.5h-166z" />
<glyph unicode="&#x2000;" horiz-adv-x="977" />
<glyph unicode="&#x2001;" horiz-adv-x="1954" />
<glyph unicode="&#x2002;" horiz-adv-x="977" />
<glyph unicode="&#x2003;" horiz-adv-x="1954" />
<glyph unicode="&#x2004;" horiz-adv-x="651" />
<glyph unicode="&#x2005;" horiz-adv-x="488" />
<glyph unicode="&#x2006;" horiz-adv-x="325" />
<glyph unicode="&#x2007;" horiz-adv-x="325" />
<glyph unicode="&#x2008;" horiz-adv-x="244" />
<glyph unicode="&#x2009;" horiz-adv-x="390" />
<glyph unicode="&#x200a;" horiz-adv-x="108" />
<glyph unicode="&#x2010;" horiz-adv-x="681" d="M80 401v324h522v-324h-522z" />
<glyph unicode="&#x2011;" horiz-adv-x="681" d="M80 401v324h522v-324h-522z" />
<glyph unicode="&#x2012;" horiz-adv-x="681" d="M80 401v324h522v-324h-522z" />
<glyph unicode="&#x2013;" horiz-adv-x="1024" d="M0 401v283h1024v-283h-1024z" />
<glyph unicode="&#x2014;" horiz-adv-x="2048" d="M0 401v283h2052v-283h-2052z" />
<glyph unicode="&#x2018;" horiz-adv-x="569" d="M90 678v338l186 393h195l-145 -373h145v-358h-381z" />
<glyph unicode="&#x2019;" horiz-adv-x="569" d="M98 678l146 373h-146v358h381v-338l-186 -393h-195z" />
<glyph unicode="&#x201a;" horiz-adv-x="569" d="M90 0v358h381v-338l-186 -393h-195l146 373h-146z" />
<glyph unicode="&#x201c;" horiz-adv-x="1024" d="M84 678v338l186 393h195l-146 -373h146v-358h-381zM553 678v338l186 393h195l-146 -373h146v-358h-381z" />
<glyph unicode="&#x201d;" horiz-adv-x="1024" d="M90 678l146 373h-146v358h381v-338l-186 -393h-195zM559 678l146 373h-146v358h381v-338l-186 -393h-195z" />
<glyph unicode="&#x201e;" horiz-adv-x="1024" d="M90 0v358h381v-338l-186 -393h-195l146 373h-146zM559 0v358h381v-338l-186 -393h-195l146 373h-146z" />
<glyph unicode="&#x2022;" horiz-adv-x="1024" d="M180 707q0 90 45 165.5t121 120.5t166 45t166 -45t121 -120.5t45 -165.5t-45 -166t-121 -121t-166 -45t-166 45t-121 120.5t-45 166.5z" />
<glyph unicode="&#x2026;" horiz-adv-x="2048" d="M125 0v408h434v-408h-434zM807 0v408h434v-408h-434zM1491 0v408h434v-408h-434z" />
<glyph unicode="&#x202f;" horiz-adv-x="390" />
<glyph unicode="&#x2039;" horiz-adv-x="681" d="M23 664l342 417h292l-282 -417l282 -420h-292z" />
<glyph unicode="&#x203a;" horiz-adv-x="681" d="M25 244l282 420l-282 417h292l342 -417l-342 -420h-292z" />
<glyph unicode="&#x205f;" horiz-adv-x="488" />
<glyph unicode="&#x20ac;" d="M47 465v190h184v99h-184v190h211q72 260 271.5 375t441.5 115q180 0 315 -39v-297q-8 4 -41 16t-89 23.5t-122 11.5q-131 0 -221 -53.5t-135 -151.5h428v-190h-473v-45q0 -37 2 -54h471v-190h-426q47 -98 136 -151.5t218 -53.5q66 0 122 12.5t89 25.5t41 17v-288 q-166 -51 -321 -52q-143 0 -285.5 46.5t-257.5 156t-164 287.5h-211z" />
<glyph unicode="&#x2122;" horiz-adv-x="1945" d="M37 1200v209h797v-209h-267v-606h-262v606h-268zM897 594v815h369l120 -471h11l119 471h356v-815h-258v254q0 86 9 179t13 120h-8l-151 -553h-205l-152 551h-8q4 -27 14.5 -119t10.5 -178v-254h-240z" />
<glyph unicode="&#x25fc;" horiz-adv-x="1085" d="M0 0v1085h1085v-1085h-1085z" />
</font>
</defs>
</svg>
