<?xml version="1.0" standalone="no"?>
<!DOCTYPE svg PUBLIC "-//W3C//DTD SVG 1.1//EN" "http://www.w3.org/Graphics/SVG/1.1/DTD/svg11.dtd" >
<svg xmlns="http://www.w3.org/2000/svg" xmlns:xlink="http://www.w3.org/1999/xlink" version="1.1">
<metadata></metadata>
<defs>
<font id="signikaregular" horiz-adv-x="1085" >
<font-face units-per-em="2048" ascent="1638" descent="-410" />
<missing-glyph horiz-adv-x="450" />
<glyph horiz-adv-x="0" />
<glyph horiz-adv-x="682" />
<glyph unicode="&#xd;" horiz-adv-x="681" />
<glyph unicode=" "  horiz-adv-x="450" />
<glyph unicode="&#x09;" horiz-adv-x="450" />
<glyph unicode="&#xa0;" horiz-adv-x="450" />
<glyph unicode="!" horiz-adv-x="589" d="M158 102q0 68 18 97q41 27 115 26q33 0 58.5 -5t43 -12t25.5 -35t8 -71q0 -41 -8 -67.5t-25.5 -34.5t-43 -13t-58.5 -5q-31 0 -55.5 4t-44 12t-26.5 34.5t-7 69.5zM184 1352q82 61 226 61l14 -14l-51 -1002q-16 -6 -39 -8t-45 -2q-23 0 -43.5 2t-36.5 8z" />
<glyph unicode="&#x22;" horiz-adv-x="798" d="M94 1454q1 29 15 84q47 27 104 27q59 0 106 -27q14 -55 15 -86q0 -14 -2 -34.5t-8 -49.5q-16 -80 -29.5 -161t-24.5 -167q-10 -6 -24.5 -8t-30.5 -2t-31.5 2t-25.5 8q-23 170 -43.5 277.5t-20.5 136.5zM465 1454q0 29 14 84q47 27 105 27q59 0 106 -27q14 -55 15 -86 q0 -27 -13 -84q-16 -80 -28.5 -161t-22.5 -167q-18 -10 -57 -10q-16 0 -30.5 2t-25.5 8q-23 170 -43 277.5t-20 136.5z" />
<glyph unicode="#" horiz-adv-x="1320" d="M47 404.5q0 52.5 14 87.5h248l80 352h-231q-12 35 -12.5 87t12.5 89h270l66 289q35 14 95 14t95 -14l-66 -289h259l65 289q35 14 95.5 14t95.5 -14l-66 -289h201q12 -37 12 -89t-12 -87h-240l-78 -352h219q14 -35 14.5 -87.5t-14.5 -87.5h-258l-65 -290 q-35 -14 -96.5 -14.5t-96.5 14.5l66 290h-256l-66 -290q-33 -14 -96 -14.5t-96 14.5l65 290h-209q-14 35 -14 87.5zM502 492h256l80 352h-258z" />
<glyph unicode="$" horiz-adv-x="1021" d="M68 201q2 43 26.5 93t57.5 71q207 -115 370 -115q86 0 142.5 36t56.5 101q0 106 -150 162l-204 74q-127 45 -189.5 120.5t-62.5 178.5q0 123 80.5 210t222.5 109v168q25 8 82 8q61 0 88 -8v-164q82 -8 161.5 -30.5t157.5 -57.5q0 -102 -78 -168q-176 80 -317 80 q-82 0 -131 -36t-49 -91q0 -53 33.5 -82t107.5 -53l199 -74q123 -47 196.5 -128t73.5 -210t-97 -217t-265 -102v-156q-37 -6 -88 -6t-82 6v160q-205 27 -342 121z" />
<glyph unicode="%" horiz-adv-x="1857" d="M98 1004q0 215 84 317t238 102q139 0 223 -84q100 -100 100 -335q0 -217 -85 -318.5t-238 -101.5q-154 0 -238 101t-84 319zM281 1004q0 -279 139 -279q141 0 141 279q0 280 -141 280q-139 0 -139 -280zM438 0l772 1399q37 10 86 10q84 0 121 -10l-770 -1399 q-37 -10 -88 -10q-43 0 -73 2t-48 8zM1114 397q0 213 84 315.5t238 102.5t238.5 -101.5t84.5 -318.5q0 -236 -100 -336q-84 -84 -221 -84q-162 0 -243 106.5t-81 315.5zM1296 393q0 -279 142 -278q141 -1 141 278q0 281 -141 281t-142 -281z" />
<glyph unicode="&#x26;" horiz-adv-x="1275" d="M102 350q0 78 21.5 143.5t58.5 117t86 86t105 53.5q-94 31 -152.5 115.5t-58.5 195.5q0 80 30.5 146.5t87 115.5t136.5 75.5t178 26.5q201 0 373 -59q0 -104 -58 -168q-172 53 -284 53q-117 0 -177.5 -55t-60.5 -154q0 -98 62.5 -153t191.5 -55h377q123 0 194 30 q29 -35 29 -102q0 -113 -154 -113h-65l2 -340q0 -18 3 -95t11 -214q-41 -12 -102 -12q-27 0 -51.5 2t-44.5 8l-17 84q-152 -109 -331 -109q-90 0 -163 30t-123 81t-77 119.5t-27 146.5zM328 381q0 -111 58 -173.5t159 -62.5q152 0 270 97v278v74t2 55h-196 q-74 0 -128.5 -21.5t-91 -57t-55 -85t-18.5 -104.5z" />
<glyph unicode="'" horiz-adv-x="432" d="M88 1454q0 29 14 84q47 27 105 27q59 0 106 -27q14 -55 15 -86q0 -27 -13 -84q-16 -80 -28.5 -161t-22.5 -167q-18 -10 -57 -10q-16 0 -30.5 2t-24.5 8q-23 170 -43.5 277.5t-20.5 136.5z" />
<glyph unicode="(" horiz-adv-x="679" d="M127 666q0 137 27.5 281.5t78 281.5t123 258t164.5 211q90 -29 127 -115q-291 -377 -291 -919q0 -541 291 -918q-37 -86 -127 -115q-92 90 -164.5 211t-123 258.5t-78 282.5t-27.5 283z" />
<glyph unicode=")" horiz-adv-x="679" d="M33 -254q291 383 291 918q0 537 -291 919q37 86 127 115q90 -90 162.5 -211t123 -258t78 -282.5t27.5 -282.5t-26.5 -281.5t-78 -282t-123 -258.5t-163.5 -211q-90 29 -127 115z" />
<glyph unicode="*" horiz-adv-x="1032" d="M92 1120q-4 35 14.5 91.5t43.5 84.5l106 -36q70 -25 207 -109q-37 143 -37 231l-2 115q33 14 91 14t93 -14l-2 -115q0 -78 -39 -229q139 82 209 107l109 34q23 -25 41 -80t16 -94l-111 -35q-78 -25 -231 -32q117 -96 168 -166l66 -90q-16 -31 -62.5 -66t-85.5 -43l-65 92 q-53 76 -105 209q-51 -135 -104 -207l-66 -94q-37 10 -83 44t-66 65l67 90q47 63 166 166q-152 8 -229 34z" />
<glyph unicode="+" d="M106.5 599q-0.5 54 8.5 93h233l101 -2l-3 101v251q41 8 97.5 8.5t95.5 -8.5v-251l-2 -101l100 2h234q8 -41 8 -94t-8 -88h-234l-100 2l2 -98v-254q-39 -8 -95.5 -8t-97.5 8v254l3 98l-101 -2h-233q-8 35 -8.5 89z" />
<glyph unicode="," horiz-adv-x="550" d="M68 -223q72 31 118.5 86t51.5 119q-39 10 -61.5 17t-28 24.5t-8.5 39t-3 52.5q0 47 7.5 73.5t28 33.5t47 12.5t61.5 5.5q83 0 122 -27q23 -61 23 -135q0 -135 -78 -246t-225 -162q-29 14 -42 43t-13 64z" />
<glyph unicode="-" horiz-adv-x="716" d="M94 546q0 56 10 91h508q10 -37 10 -92t-10 -90h-508q-10 35 -10 91z" />
<glyph unicode="." horiz-adv-x="538" d="M125 113q0 65 18 100q51 29 127 29q35 0 61.5 -5.5t47 -14.5t28 -36.5t7.5 -72.5q0 -43 -5.5 -71t-23.5 -38t-45 -15t-68 -5q-39 0 -66.5 5t-48 13t-26.5 37t-6 74z" />
<glyph unicode="/" horiz-adv-x="864" d="M14 -158l648 1717q102 -6 184 -68l-647 -1718q-103 6 -185 69z" />
<glyph unicode="0" d="M94 664q0 104 7.5 189t23.5 154.5t46 125t73 102.5q119 119 299 119q223 0 335.5 -163t112.5 -527q0 -362 -109.5 -526.5t-338.5 -164.5q-231 0 -343 172t-106 519zM317 664q0 -349 78 -451q47 -72 148 -72q59 0 101 26t69.5 86t41 160.5t13.5 250.5t-13.5 250t-41 160.5 t-69.5 86t-101 25.5t-101.5 -25.5t-70 -86t-41 -161t-13.5 -249.5z" />
<glyph unicode="1" d="M121 934q287 178 383 393q43 10 99 10t102 -10v-1014l-3 -137l121 2h142q8 -39 8 -89t-8 -89h-772q-8 41 -8.5 90t8.5 88h188l117 -2l-2 137v467q0 33 10 248q-115 -141 -295 -221q-74 41 -90 127z" />
<glyph unicode="2" d="M111 133q0 164 256 389l200 176q78 68 116 138.5t38 138.5q0 92 -55.5 147.5t-141.5 55.5t-148.5 -54.5t-96.5 -140.5q-43 2 -88.5 21.5t-65.5 50.5q23 63 61.5 117.5t93 94.5t124 63.5t153.5 23.5q82 0 152.5 -29t122 -79t80 -116.5t28.5 -142.5q0 -78 -16.5 -136 t-49 -109.5t-81 -98.5t-109.5 -100l-158 -135q-180 -156 -200 -238q80 8 147.5 12t122.5 4h377q0 -88 -26.5 -137t-115.5 -49h-636q-84 74 -84 133z" />
<glyph unicode="3" d="M98 109q23 86 95 141q139 -102 272 -103q135 0 211 71t76 194q0 121 -62.5 185.5t-154.5 64.5q-88 0 -154 -35q-57 27 -86 114l256 279q104 104 139 133l-6 10q-80 -20 -238 -20h-288q-12 33 -13 82q0 53 19 102h715q45 -84 45 -135q0 -45 -43 -94l-215 -230 q-14 -14 -33 -30.5t-41 -32.5q82 -2 152.5 -28.5t120.5 -77t79 -124t29 -172.5q0 -98 -38 -178t-102.5 -135t-148.5 -86t-176 -31q-250 0 -410 136z" />
<glyph unicode="4" d="M78 398.5q0 37.5 41 140.5l346 800q45 10 107.5 -1t91.5 -38l-236 -544q-90 -209 -143 -297l6 -8q129 10 233 10h76q-2 23 -2 65v160q0 76 37 120t102 44h58l10 -10v-271l-2 -108l94 2h109q6 -43 6 -89t-15 -91h-100l-94 2l2 -111v-174q-47 -8 -105.5 -8t-101.5 8v174 l2 111l-111 -4h-362q-49 80 -49 117.5z" />
<glyph unicode="5" d="M115 104q6 35 32.5 77t57.5 65q74 -51 143.5 -75t130.5 -24q119 0 194 79t75 216q0 72 -19.5 123t-57.5 84t-81 48.5t-96 15.5q-55 0 -115 -20.5t-115 -67.5q-29 4 -58.5 25.5t-43.5 45.5l28 617l15 14h694q14 -41 14 -88q0 -94 -94 -94h-432v-103l-14 -196q88 37 180 37 q190 0 303 -114t113 -331q0 -106 -38 -192t-101.5 -146.5t-149.5 -93.5t-180 -33q-236 0 -385 131z" />
<glyph unicode="6" d="M102 670q0 160 35 286.5t101.5 215t165 135.5t227.5 47q180 0 295 -66q-10 -104 -76 -149q-98 45 -207 45q-156 0 -233.5 -111.5t-83.5 -302.5q125 117 297 117q174 0 272 -110.5t98 -327.5q0 -104 -31.5 -192.5t-89 -151t-138.5 -97.5t-181 -35q-194 0 -307 131 q-37 47 -63.5 100.5t-45 119t-27 150.5t-8.5 196zM326 561q0 -209 60 -316.5t179 -107.5q98 0 154.5 78t56.5 213q0 281 -209 281q-133 0 -241 -115v-33z" />
<glyph unicode="7" d="M123 1229q0 49 18 98h811q39 -78 39 -127t-33 -94l-69 -100q-156 -229 -240 -443.5t-112 -488.5l-7 -74q-47 -10 -106 -10t-115 10l8 84q49 483 334 893l23 33q41 63 114 143l-8 8q-84 -18 -311 -18h-336q-10 37 -10 86z" />
<glyph unicode="8" d="M90 334q0 117 67.5 209t172.5 147q-205 111 -205 314q0 76 31.5 140t89 110t133.5 73t166 27t165.5 -25.5t130 -72t85 -109t30.5 -135.5q0 -98 -55 -175t-143 -124q236 -127 235 -363q0 -86 -35.5 -155.5t-99 -118.5t-147.5 -76t-183 -27q-98 0 -179 25t-138 71 t-89 112.5t-32 152.5zM307 350q0 -104 65.5 -163.5t166.5 -59.5q104 0 169.5 62.5t65.5 162.5q0 184 -254 260l-35 13h-4q-174 -98 -174 -275zM338 1006q0 -156 237 -222l25 -10q145 84 145 230q0 88 -58 140t-146 52q-86 0 -144.5 -52t-58.5 -138z" />
<glyph unicode="9" d="M92 879q0 109 33 196.5t91 149t138 95.5t176 34q197 0 310 -131q37 -47 63.5 -100.5t44 -120t26.5 -150.5t9 -195q0 -160 -35 -286.5t-101.5 -214.5t-164.5 -135.5t-227 -47.5q-180 0 -295 66q10 104 76 149q98 -45 206 -45q156 0 234 111t84 301q-131 -115 -299 -115 q-172 0 -270.5 111t-98.5 328zM309 899q0 -281 209 -281q129 0 242 113v35q0 209 -60.5 316.5t-181.5 107.5q-98 0 -153.5 -78t-55.5 -213z" />
<glyph unicode=":" horiz-adv-x="550" d="M131 113q1 65 19 100q53 29 126 29q35 0 62 -5.5t47.5 -14.5t27.5 -36.5t7 -72.5q0 -43 -7 -73t-23.5 -38t-43.5 -13t-67 -5q-39 0 -67 5t-47.5 12t-26.5 37t-7 75zM131 786q1 66 19 101q53 29 126 28q35 0 62 -5t47.5 -14t27.5 -37t7 -73q0 -43 -6 -71.5t-23.5 -38.5 t-44.5 -14.5t-67 -4.5q-39 0 -67 5.5t-47.5 12.5t-26.5 36.5t-7 74.5z" />
<glyph unicode=";" horiz-adv-x="559" d="M66 -223q72 31 118.5 86t51.5 119q-39 10 -60.5 17t-27 24.5t-9.5 39t-4 52.5q0 47 8.5 73.5t27.5 33.5t46 12.5t62 5.5q83 0 122 -27q23 -61 23 -135q0 -135 -78 -246t-225 -162q-29 14 -42 43t-13 64zM135 786q1 66 19 101q51 29 127 28q35 0 61.5 -3t45 -16t27.5 -39 t9 -71q0 -43 -7 -67.5t-23.5 -38.5t-43 -18.5t-67.5 -4.5q-39 0 -67 3.5t-46 16.5t-26.5 38.5t-8.5 70.5z" />
<glyph unicode="&#x3c;" d="M111 514q-27 96 0 170l755 414q88 -53 99 -166l-486 -256l-151 -70v-12l151 -70l486 -256q-4 -51 -33 -97t-66 -71z" />
<glyph unicode="=" d="M106.5 406.5q-0.5 52.5 8.5 91.5h856q8 -39 8 -91.5t-8 -91.5h-856q-8 39 -8.5 91.5zM106.5 799q-0.5 53 8.5 94h856q8 -41 8 -94t-8 -88h-856q-8 35 -8.5 88z" />
<glyph unicode="&#x3e;" d="M121 270l485 254q37 20 152 70v14q-115 49 -152 70l-485 256q4 51 32.5 97t65.5 71l756 -416q27 -94 0 -170l-756 -414q-88 53 -98 168z" />
<glyph unicode="?" horiz-adv-x="811" d="M23 1321q186 104 376 104t292 -95t102 -255q-2 -123 -66.5 -224t-200.5 -173l-129 -70l-16 -209q-37 -12 -82 -12q-43 0 -80 12l-12 306l18 22l99 51q123 63 183 131t60 146t-52 130t-153 52q-53 0 -118.5 -17.5t-143.5 -56.5q-29 25 -52 70t-25 88zM168 100q0 62 18 97 q41 27 115 26q31 0 56.5 -5t46 -14t26.5 -34t6 -70t-8 -70.5t-23.5 -31.5t-44 -12t-59.5 -6q-33 0 -57.5 6t-42 12t-25.5 33.5t-8 68.5z" />
<glyph unicode="@" horiz-adv-x="1943" d="M102 459q0 201 68 370.5t187.5 293.5t283.5 193.5t356 69.5q190 0 349 -56t273 -159.5t176.5 -250t62.5 -326.5q0 -133 -34 -239.5t-90.5 -181.5t-132 -115t-161.5 -40q-170 0 -248 127q-127 -135 -283 -135q-154 0 -240.5 123t-86.5 340q0 106 27.5 199.5t81.5 163 t133 109.5t182 40q200 0 352 -141l-2 -522q0 -141 88 -142q88 0 146.5 101.5t58.5 318.5q0 141 -46.5 257t-130 199t-204.5 128t-271 45q-152 0 -276.5 -58.5t-214.5 -161t-140.5 -242.5t-50.5 -304q0 -166 44 -294t124 -214t192.5 -131t252.5 -45q233 0 415 76 q55 -59 56 -150q-236 -90 -486 -90q-180 0 -329.5 56.5t-256 164t-166 264t-59.5 359.5zM786 469q0 -293 166 -293q51 0 107.5 35t95.5 86v473q-61 61 -162 61q-49 0 -88 -26.5t-64.5 -74.5t-40 -114.5t-14.5 -146.5z" />
<glyph unicode="A" horiz-adv-x="1251" d="M41 14l463 1385q43 8 125 8t123 -8l458 -1385q-42 -29 -108 -29q0 1 -2 1q-68 0 -96.5 24.5t-49.5 89.5l-75 240l-123 -2h-281l-119 2l-108 -342q-35 -8 -92.5 -8t-108.5 14zM412 516l104 2h205q84 -2 102 -2l-94 297q-72 229 -108 371h-11q-25 -113 -80 -297z" />
<glyph unicode="B" horiz-adv-x="1239" d="M186 12v1374l13 15l426 6q223 0 334.5 -96.5t111.5 -274.5q0 -98 -53 -175t-139 -111q51 -16 99 -51t83 -82.5t56.5 -104.5t21.5 -121q0 -180 -121 -289.5t-367 -109.5l-452 4zM401 156l248 2q76 0 127 20.5t82 54t44 77.5t13 96q0 45 -15 89t-49 78.5t-87 56t-127 21.5 h-236v-495zM401 819h215q66 0 111 16.5t72.5 45t40 67.5t12.5 82q0 211 -231 211h-132.5t-87.5 2v-424z" />
<glyph unicode="C" horiz-adv-x="1236" d="M100 692q0 184 43 321.5t118 228.5t175.5 137t212.5 46q117 0 210 -32.5t159.5 -88t101.5 -127t35 -151.5q0 -123 -123 -123q-39 0 -90 12q0 66 -15.5 126.5t-50 106.5t-90 73.5t-135.5 27.5q-158 0 -239.5 -141t-81.5 -406q0 -262 88 -400t260 -138t358 155 q84 -55 109 -141q-45 -45 -103.5 -82t-123 -64.5t-133 -43t-134.5 -15.5q-158 0 -264 60.5t-166.5 160t-90.5 229.5t-30 269z" />
<glyph unicode="D" horiz-adv-x="1327" d="M186 12v1374l13 15q178 6 450 6q166 0 276.5 -55.5t177 -151.5t93.5 -226t27 -278q0 -205 -44 -351.5t-173 -250.5q-31 -25 -73 -44t-91 -32.5t-99.5 -20.5t-95.5 -7q-47 0 -157.5 2t-290.5 6zM403 166h246q348 0 348 532q0 279 -87 406t-261 127h-246v-1065z" />
<glyph unicode="E" horiz-adv-x="1159" d="M184 133v1253l15 13h823q6 -33 6 -87.5t-16 -97.5h-615l2 -133v-286l127 2h385q11 -39 11 -96q0 -51 -11 -85h-385q-80 0 -127 2v-335l-2 -105q61 6 135 6h531q0 -55 -6 -84q-18 -102 -139 -102h-609q-57 0 -91 36t-34 99z" />
<glyph unicode="F" horiz-adv-x="1069" d="M186 0v1386l13 13h811q12 -37 12 -86q0 -100 -123 -101h-301q-140 0 -197 2l2 -241v-180q31 2 86 2h412q10 -35 10 -91.5t-10 -91.5h-498v-612q-47 -8 -110.5 -8t-106.5 8z" />
<glyph unicode="G" horiz-adv-x="1316" d="M100 690q0 188 51.5 333.5t139.5 229.5q178 172 416 172q279 0 477 -149q-16 -102 -105 -164q-168 127 -372 127q-170 0 -274.5 -133t-104.5 -418q0 -534 390 -534h1q145 0 260 34v230q0 90 4 131h-180q-102 0 -103 96q1 47 17 90l315 2q156 0 156 -143v-533 q-229 -88 -506 -88q-154 0 -269.5 57.5t-183.5 157.5q-129 199 -129 502z" />
<glyph unicode="H" horiz-adv-x="1382" d="M186 0v1399q41 8 107.5 8t109.5 -8v-434l-2 -152l117 2h346l115 -2l-2 152v434q43 8 109.5 8t109.5 -8v-1399q-47 -8 -109.5 -8t-109.5 8v479l2 152l-115 -2h-346l-117 2l2 -152v-479q-43 -8 -109.5 -8t-107.5 8z" />
<glyph unicode="I" horiz-adv-x="602" d="M193 0v1399q41 8 107.5 8t109.5 -8v-1399q-43 -8 -109.5 -8t-107.5 8z" />
<glyph unicode="J" horiz-adv-x="917" d="M20 66q16 93 82 163q112 -68 226 -68q1 0 2 1q114 0 162.5 73.5t48.5 243.5v920q43 8 108.5 8t108.5 -8v-889q0 -125 -16.5 -212t-59.5 -163q-85 -155 -339 -155h-3q-180 0 -320 86z" />
<glyph unicode="K" horiz-adv-x="1220" d="M186 0v1399q41 8 107.5 8t109.5 -8v-588l115 4q29 0 44.5 12.5t33.5 44.5l262 445q29 49 54.5 68.5t81 19.5t120.5 -6l14 -19l-309 -524q-39 -66 -82 -102q96 -18 150.5 -78t97.5 -174l111 -297q41 -107 92 -148q-44 -69 -145 -69h-3q-59 0 -88.5 29.5t-54.5 101.5 l-111 301q-43 115 -98 162t-138 47t-147 -4v-625q-43 -8 -109.5 -8t-107.5 8z" />
<glyph unicode="L" horiz-adv-x="1048" d="M184 133v1262l15 12h82q68 0 95 -33t27 -106v-1088q85 8 183 8h407q0 -45 -6 -86q-18 -104 -141 -104h-535q-57 0 -92 36t-35 99z" />
<glyph unicode="M" horiz-adv-x="1654" d="M152 2l108 1397q49 8 143.5 8t141.5 -8l194 -641q53 -166 82 -326h13q14 100 79 326l195 641q53 8 143 8t144 -8l108 -1397q-45 -12 -105.5 -12t-103.5 8l-47 750q-12 164 -16 415h-12l-281 -950q-66 -8 -113 -8t-108 8l-281 950h-12q-10 -309 -16 -415l-50 -750 q-41 -8 -102 -8t-104 12z" />
<glyph unicode="N" horiz-adv-x="1392" d="M186 0v1397q57 10 130 10t130 -8l433 -858q29 -61 75.5 -167t59.5 -130l8 2q-16 262 -16 516v510q0 74 25.5 104.5t90.5 30.5h72l12 -10v-1395q-57 -10 -131 -10t-131 8l-436 858q-66 137 -129 285l-8 -2q18 -317 18 -502v-639q-49 -8 -102.5 -8t-100.5 8z" />
<glyph unicode="O" horiz-adv-x="1347" d="M100 698q0 168 38 302.5t111 228.5t179.5 145t245.5 51q137 0 244.5 -50t179 -144t109.5 -229.5t38 -303.5t-38 -302t-109.5 -228t-179 -144.5t-244.5 -50.5q-218 0 -355 123q-219 188 -219 602zM330 711q0 -104 14 -206t53 -181.5t106.5 -128t172.5 -48.5 q113 0 179.5 56.5t102 140.5t47 180.5t11.5 175.5q0 82 -11.5 178.5t-46 179.5t-103.5 138t-181 55q-104 0 -175 -49t-106 -135t-49 -174t-14 -182z" />
<glyph unicode="P" horiz-adv-x="1163" d="M186 0v1386l13 15l422 6q106 0 193 -29.5t148.5 -87t94.5 -142.5t33 -196t-34 -196.5t-95.5 -144t-148.5 -88t-191 -29.5h-218v-494q-23 -4 -51 -6t-59 -2q-29 0 -57.5 2t-49.5 6zM403 666l209 2q70 0 118 23.5t77 62.5t42 90t13 106q0 57 -13 108.5t-42 90.5t-77 61.5 t-116 22.5h-124t-87 2v-569z" />
<glyph unicode="Q" horiz-adv-x="1347" d="M100 700q0 168 36 303.5t106.5 228.5t177 143t246.5 50q141 0 246.5 -50t177 -142t107.5 -224t36 -296q0 -129 -20.5 -240t-59.5 -197t-96.5 -146t-128.5 -87l45 -33q45 -35 81 -56.5t66.5 -33.5t57 -17t55.5 -5q-4 -72 -49 -117t-111 -45q-69 0 -145 57l-234 180h-20 q-281 0 -427.5 190.5t-146.5 536.5zM328 700q0 -548 337 -548h1q340 0 340 548q0 551 -340 551q-338 0 -338 -551z" />
<glyph unicode="R" horiz-adv-x="1228" d="M186 0v1386l13 15l440 6q217 0 341 -109.5t124 -310.5q0 -137 -73 -236.5t-189 -136.5q96 -35 145 -174l90 -239q39 -106 92 -148q-44 -67 -144 -67h-3q-57 0 -87 30.5t-56 102.5l-103 276q-31 82 -75 125t-132 43h-168v-563q-43 -8 -108.5 -8t-106.5 8zM401 737 q160 4 228 4q137 0 193.5 70t56.5 176q0 248 -250 248q-158 0 -228 2v-500z" />
<glyph unicode="S" horiz-adv-x="1138" d="M61 127q8 100 93 168q213 -139 411 -139q121 0 191.5 53t70.5 139q0 141 -186 221l-242 105q-280 121 -280 352q0 86 34.5 158.5t96 128t148.5 84t192 28.5q215 0 426 -106q-2 -98 -80 -170q-197 96 -350 96q-111 0 -178.5 -54t-67.5 -128q0 -76 42 -118t128 -77 l238 -102q154 -66 230.5 -159t76.5 -222q0 -184 -128 -298t-388 -114q-261 0 -478 154z" />
<glyph unicode="T" horiz-adv-x="1007" d="M27 1306.5q0 49.5 8 92.5h942q12 -49 12 -94q0 -90 -123 -91h-133l-119 3v-1217q-47 -8 -109.5 -8t-109.5 8v1065l2 152h-2l-116 -3h-244q-8 43 -8 92.5z" />
<glyph unicode="U" horiz-adv-x="1370" d="M168 492v903l12 12h84q66 0 93.5 -33t27.5 -106v-776q0 -168 76 -255t223 -87q299 0 299 342v907q23 4 51.5 6t57.5 2q31 0 59 -2t51 -6v-907q0 -250 -139 -384.5t-379 -134.5q-238 0 -377 133.5t-139 385.5z" />
<glyph unicode="V" horiz-adv-x="1177" d="M41 1380q74 33 135 33q88 0 119 -106l211 -740q49 -174 90 -352q6 -20 18 -20l326 1204q39 8 96.5 8t96.5 -12l10 -17l-406 -1380q-106 -8 -167.5 -8t-97.5 21.5t-54 84.5z" />
<glyph unicode="W" horiz-adv-x="1740" d="M61 1386q59 27 117 27t84.5 -25.5t36.5 -91.5l129 -696q45 -258 66 -395q2 -25 18 -25l223 1190q68 10 145.5 10t135.5 -10l205 -1165q4 -25 18 -25q20 143 74 422l157 797q41 8 98.5 8t104.5 -12l10 -15l-292 -1378q-80 -12 -166 -12t-119 21.5t-45 84.5l-98 549 q-51 301 -82 506h-15q-41 -258 -90 -506l-125 -645q-88 -10 -168 -10t-116 21t-48 87z" />
<glyph unicode="X" horiz-adv-x="1202" d="M37 25l438 706l-389 635q70 47 148.5 47t132.5 -86l251 -409l293 481q35 10 97.5 10t107.5 -20l6 -15l-393 -635l436 -706q-70 -47 -148.5 -47t-133.5 88l-297 479l-334 -553q-35 -10 -99.5 -10t-109.5 20z" />
<glyph unicode="Y" horiz-adv-x="1030" d="M18 1374q70 39 125.5 39t82 -21.5t46.5 -72.5l162 -393q41 -102 86 -256h10q23 82 91 260l186 469q39 10 94 10t105 -16l10 -15l-389 -929v-449q-47 -8 -112.5 -8t-106.5 8v453z" />
<glyph unicode="Z" horiz-adv-x="1150" d="M98 145q0 43 29 86l516 777q20 31 162 217l-6 6q-90 -16 -320 -17h-329q-9 35 -9 82q0 45 17 103h843q31 -104 31 -144.5t-28 -83.5l-515 -770q-47 -72 -159 -219l6 -6q129 12 246 12h213q164 0 241 39q18 -55 19 -106q0 -121 -152 -121h-778q-27 102 -27 145z" />
<glyph unicode="[" horiz-adv-x="704" d="M203 -293v1950l14 12l416 -14q8 -25 8 -62t-16 -92l-209 -6v-1626l209 -6q16 -55 16 -92t-8 -62l-416 -14z" />
<glyph unicode="\" horiz-adv-x="864" d="M20 1491q80 61 183 68l647 -1717q-78 -59 -182 -69z" />
<glyph unicode="]" horiz-adv-x="704" d="M63.5 -229.5q-0.5 36.5 16.5 92.5l209 6v1626l-209 6q-16 55 -16.5 92t8.5 62l413 14l15 -12v-1950l-15 -12l-413 14q-8 25 -8.5 61.5z" />
<glyph unicode="^" d="M90 627l338 700q41 10 114.5 10t114.5 -10l338 -700q-37 -10 -101.5 -10.5t-107.5 10.5l-168 360q-23 53 -69 172h-12q-47 -119 -70 -172l-168 -360q-43 -10 -107.5 -10.5t-101.5 10.5z" />
<glyph unicode="_" d="M-10 -235q0 51 10 83h1085q8 -35 8 -83.5t-8 -81.5h-1085q-10 31 -10 82z" />
<glyph unicode="`" horiz-adv-x="815" d="M131 1374q16 45 58.5 84t89.5 55l294 -325q-29 -68 -92 -86z" />
<glyph unicode="a" horiz-adv-x="1038" d="M88 274q0 168 107.5 254t285.5 86q51 0 100.5 -3t96.5 -11v80q0 182 -168 182q-117 0 -322 -78q-59 51 -61 154q209 94 424 94q160 0 248 -85t88 -257v-420q0 -127 57 -176q-25 -74 -80 -108q-121 23 -164 127q-145 -139 -299 -140q-78 0 -136 25t-98 66.5t-59.5 96 t-19.5 113.5zM299 299q0 -74 37 -116t100 -42q131 0 242 123v195q-41 4 -86 6t-94 2q-94 0 -146.5 -46t-52.5 -122z" />
<glyph unicode="b" horiz-adv-x="1081" d="M160 51v1442l12 12h80q63 0 89 -31.5t26 -103.5v-446q123 104 282 104q164 0 253 -141.5t89 -392.5q0 -119 -34.5 -213.5t-96 -161t-144.5 -101t-179 -34.5h-6q-194 0 -371 67zM367 166q76 -25 176 -25q102 0 167.5 96.5t65.5 272.5q0 178 -50 260t-136 82 q-123 0 -223 -117v-569z" />
<glyph unicode="c" horiz-adv-x="964" d="M90 518q0 125 35 222.5t93 163t135 100t163 34.5q88 0 156.5 -26.5t117 -69.5t74 -99.5t25.5 -113.5q0 -117 -107 -117q-53 1 -88 9v22q0 231 -180 231q-98 0 -151.5 -94t-53.5 -280q0 -352 232 -353q115 0 247 103q29 -16 55.5 -53t35.5 -72q-152 -152 -367 -152 q-109 0 -187.5 40t-131 112t-78 172t-25.5 221z" />
<glyph unicode="d" d="M90 504q0 125 32 222t85 164.5t124.5 102.5t151.5 35q111 0 232 -67v532l14 12h80q63 0 88 -30.5t25 -104.5v-1081q0 -143 57 -195q-8 -29 -30.5 -61.5t-47.5 -46.5q-117 23 -162 127q-121 -139 -295 -140q-174 0 -264 140.5t-90 390.5zM305 496q0 -178 53.5 -262 t133.5 -84q133 0 223 129v507q-115 74 -199 74q-92 0 -151.5 -92t-59.5 -272z" />
<glyph unicode="e" horiz-adv-x="1024" d="M90 512q0 113 28.5 210t82 166.5t132.5 109.5t177 40t175 -32.5t130 -91t81 -139.5t28 -175q0 -41 -3.5 -81t-11.5 -81h-602q6 -141 60.5 -217t183.5 -76q61 0 132 18.5t146 59.5q51 -47 68 -135q-164 -115 -385 -115q-117 0 -196.5 41t-130 113t-73 171t-22.5 214z M307 592h414v26q0 117 -50.5 190t-154.5 73q-195 0 -209 -289z" />
<glyph unicode="f" horiz-adv-x="681" d="M23 934q0 47 8 80l166 -2q-12 125 -13 182q0 70 21.5 128t62.5 101t98.5 66.5t129.5 23.5q143 0 266 -47q0 -92 -49 -143q-47 14 -89 22.5t-77 8.5q-86 0 -124 -46t-38 -139q0 -35 4 -73.5t10 -85.5l289 4q4 -18 6 -38t2 -42q0 -20 -2 -41t-6 -37l-274 4v-860 q-23 -4 -49.5 -6t-55.5 -2t-55.5 2t-46.5 6v860l-176 -4q-4 16 -6 36.5t-2 41.5z" />
<glyph unicode="g" horiz-adv-x="1081" d="M90 512q0 125 31 222t86 165t125.5 103.5t150.5 35.5q164 0 279 -106q45 72 141 94q25 -16 48.5 -49t29.5 -59q-57 -55 -57 -195v-606q0 -158 -26 -266.5t-79 -175t-135 -96.5t-197 -30q-182 0 -354 68q2 98 55 160q129 -63 279 -64q145 0 198.5 75t53.5 210v94 q-120 -110 -282 -110h-3q-162 0 -253 141t-91 389zM305 504q0 -178 51.5 -262t132.5 -84q128 0 230 121v497q-102 92 -201 92q-98 0 -155.5 -92t-57.5 -272z" />
<glyph unicode="h" horiz-adv-x="1114" d="M160 0v1493l12 12h82q63 0 88 -30.5t25 -104.5v-477q150 135 323 135q137 0 205 -91t68 -245v-475q0 -123 32 -186q-57 -45 -125 -45t-93 33.5t-25 101.5v520q0 106 -28 151.5t-95 45.5q-68 0 -138.5 -35t-123.5 -92v-711q-20 -4 -47 -6t-56 -2t-56.5 2t-47.5 6z" />
<glyph unicode="i" horiz-adv-x="555" d="M66 932q0 31 10 78q68 8 129 8h28q78 0 122 -49t44 -133v-836q-39 -8 -105.5 -8t-105.5 8v750q0 57 -20.5 81.5t-69.5 24.5h-22q-10 45 -10 76zM125 1292q0 84 30.5 99.5t102.5 17.5q82 -2 104.5 -20.5t24.5 -96.5q-2 -74 -24.5 -94t-104.5 -22h-6q-76 0 -109 26 q-18 37 -18 90z" />
<glyph unicode="j" horiz-adv-x="569" d="M55 -319q43 20 72 42.5t45 52t23.5 67.5t7.5 91v816q0 57 -19.5 81.5t-68.5 24.5h-41q-6 23 -8.5 40t-2.5 36q0 16 2.5 34.5t8.5 43.5q37 4 73.5 6t75.5 2h27q76 0 119 -48t43 -134v-799q0 -143 -18.5 -230.5t-55.5 -138.5t-92.5 -74.5t-128.5 -42.5q-53 49 -62 130z M137 1292q0 74 21.5 93.5t111.5 23.5q70 -6 96.5 -15.5t32.5 -101.5q-6 -86 -26.5 -98t-102.5 -18h-6q-74 0 -108 26q-18 37 -19 90z" />
<glyph unicode="k" horiz-adv-x="1028" d="M160 0v1493l12 12h82q63 0 88 -30.5t25 -104.5v-758l69 4q33 0 49 29l181 283q51 90 131 90t118 -2l13 -17l-223 -354q-31 -49 -68 -80q127 -32 188 -184l70 -170q47 -125 98 -160q-56 -65 -138 -65h-3q-53 0 -82 27.5t-53 90.5l-82 201q-33 80 -69 107.5t-85 27.5 t-114 -4v-436q-39 -8 -102.5 -8t-104.5 8z" />
<glyph unicode="l" horiz-adv-x="602" d="M156 203v1290l14 12h80q63 0 89 -31.5t26 -103.5v-1120q-1 -92 79 -92h76q18 -51 18.5 -90t-6.5 -62q-82 -14 -174 -14q-203 0 -202 211z" />
<glyph unicode="m" horiz-adv-x="1632" d="M160 0v1006l12 14h80q111 0 117 -129q145 139 301 139q158 0 223 -151q167 151 324 151h2q129 0 196.5 -90t67.5 -231v-492q0 -127 33 -186q-57 -45 -134 -45q-113 0 -112 135v522q0 104 -30 149.5t-93 45.5q-111 0 -221 -125v-713q-20 -4 -48 -6t-59 -2q-29 0 -57.5 2 t-46.5 6v641q0 104 -30 150.5t-93 46.5q-111 0 -221 -125v-713q-35 -8 -105 -8q-33 0 -59.5 2t-46.5 6z" />
<glyph unicode="n" horiz-adv-x="1118" d="M160 0v1008l12 12h80q111 0 117 -127q150 137 325 137q137 0 205 -91t68 -245v-477q0 -121 34 -186q-53 -45 -124 -45q-70 0 -95.5 33.5t-25.5 101.5v520q0 106 -28 151.5t-95 45.5q-68 0 -138.5 -34t-123.5 -93v-711q-35 -8 -105 -8q-33 0 -59.5 2t-46.5 6z" />
<glyph unicode="o" horiz-adv-x="1064" d="M90 506q0 119 30 217t86 169t138 108.5t188 37.5t188.5 -37.5t138.5 -108.5t86 -169t30 -217q-1 -275 -146 -420q-113 -113 -297 -113q-106 0 -188 38t-138 108.5t-86 168t-30 218.5zM309 506q0 -371 223 -371q225 0 226 371q-1 371 -226 371q-223 0 -223 -371z" />
<glyph unicode="p" d="M160 -428v1436l12 12h66q102 0 124 -105q119 123 285 123q82 0 147.5 -36.5t109.5 -106.5t67.5 -167t23.5 -220t-30.5 -221.5t-85 -166t-126 -103t-151.5 -35.5q-115 0 -233 67v-354q0 -72 -26 -103.5t-89 -31.5h-82zM369 225q53 -35 103 -54t95 -19q96 0 154.5 94 t58.5 268q0 178 -53 262t-133 84q-133 0 -225 -133v-502z" />
<glyph unicode="q" horiz-adv-x="1083" d="M90 512q0 125 32 222t86 165t124.5 103.5t150.5 35.5q158 0 279 -104q49 70 139 92q25 -14 48.5 -47t31.5 -61q-57 -51 -57 -195v-1151l-13 -12h-80q-66 0 -90 30.5t-24 104.5v393q-119 -106 -283 -106q-162 0 -253 141t-91 389zM305 506q0 -178 52 -263t132 -85 q127 0 228 118v502q-106 90 -199 90q-94 0 -153.5 -91t-59.5 -271z" />
<glyph unicode="r" horiz-adv-x="753" d="M102 913q20 76 78 113q141 -31 187 -182q82 182 268 182q49 0 108 -12q0 -119 -51 -201q-18 6 -84 10q-139 0 -219 -155v-668q-39 -8 -105.5 -8t-105.5 8v702q0 139 -76 211z" />
<glyph unicode="s" horiz-adv-x="897" d="M63 76q2 35 22.5 79t47.5 68q164 -90 266 -90q104 0 154.5 35t50.5 92q0 90 -129 139l-115 43q-260 98 -260 293q0 141 101.5 222t265.5 81q166 0 330 -73q0 -41 -17.5 -86t-46.5 -70q-145 68 -272 68q-68 0 -108 -33t-40 -82t30 -76t97 -53l123 -47q260 -100 260 -307 q0 -141 -108.5 -223.5t-294.5 -82.5q-187 1 -357 103z" />
<glyph unicode="t" horiz-adv-x="716" d="M39 933q0 42 8 81l152 -4v180q0 74 24.5 104.5t87.5 30.5h80l15 -14v-303l251 6q11 -37 11 -84q0 -43 -11 -74l-251 4v-612q0 -90 83 -90h142q16 -45 16 -91.5t-4 -60.5q-119 -14 -229 -14q-215 0 -215 211v655l-152 -2q-8 35 -8 77z" />
<glyph unicode="u" horiz-adv-x="1120" d="M117 979q51 45 133 45q113 0 112 -133v-522q0 -106 27 -151.5t94.5 -45.5t137 34t124.5 91v715q57 8 104.5 8t108.5 -8v-725q0 -143 58 -195q-23 -74 -80 -106q-129 23 -172 147q-159 -151 -340 -151h-2q-135 0 -202.5 91.5t-67.5 243.5v478q0 123 -35 184z" />
<glyph unicode="v" horiz-adv-x="931" d="M12 995q68 31 121 31q92 0 115 -90l137 -451q39 -123 80 -297q4 -16 18 -16l242 840q39 8 91 8t95 -16l7 -9q-154 -516 -316 -995q-59 -10 -139 -10t-112 22.5t-56 93.5z" />
<glyph unicode="w" horiz-adv-x="1480" d="M45 997q63 29 125 29q82 0 98 -86l92 -426q27 -119 68 -340q4 -16 16 -16l172 848q41 10 128 10t124 -10l168 -832q2 -16 17 -16q29 156 73 356l111 498q33 8 97.5 8t99.5 -16l6 -11l-248 -995q-57 -8 -142 -8t-119 22.5t-46 91.5l-60 285l-77 426h-11q-33 -184 -84 -424 l-82 -391q-78 -10 -153.5 -10t-109.5 23t-50 93z" />
<glyph unicode="x" horiz-adv-x="942" d="M31 23l321 499l-295 457q66 49 136.5 49t115.5 -63l174 -271l195 318q37 8 90 8t100 -14l6 -17l-288 -452l329 -504q-76 -49 -143 -49t-113 63l-204 313l-222 -362q-25 -8 -88 -8t-108 16z" />
<glyph unicode="y" horiz-adv-x="958" d="M10 -406q0 35 12.5 78t34.5 66q68 -27 160 -27q88 0 143.5 62.5t94.5 191.5l6 25q-66 2 -102.5 25.5t-55.5 84.5l-270 895q74 31 129 31q80 0 106 -94l140 -471q10 -33 28.5 -107.5t46.5 -193.5q2 -14 19 -15l225 867q16 4 37.5 6t48.5 2q29 0 58.5 -3t56.5 -11l6 -13 l-270 -960q-37 -129 -77 -220.5t-92.5 -148.5t-123 -83.5t-164.5 -26.5q-16 0 -49 2t-66 7t-57.5 12t-24.5 19z" />
<glyph unicode="z" horiz-adv-x="913" d="M71 121q0 35 33 78l334 454q57 78 162 199l-6 8q-86 -12 -270 -12h-215q-9 29 -9 74q0 43 13 90h686q31 -91 31 -123t-27 -74l-334 -453q-41 -57 -158 -198l6 -8q88 8 189 8h98q156 0 219 29q20 -47 21 -93q0 -100 -133 -100h-611q-29 86 -29 121z" />
<glyph unicode="{" horiz-adv-x="708" d="M78 666.5q0 43.5 8 70.5q74 23 121 87.5t47 152.5v348q0 141 80 227t211 107l106 18q23 -25 34 -69.5t3 -75.5l-100 -33q-119 -37 -119 -176v-342q0 -98 -46 -184t-124 -123v-17q78 -35 124 -120.5t46 -184.5v-344q0 -137 119 -176l100 -31q8 -33 -3 -78t-34 -69l-106 18 q-133 23 -212 108t-79 226v350q0 88 -47 152.5t-121 87.5q-8 27 -8 70.5z" />
<glyph unicode="|" horiz-adv-x="522" d="M162 -289v1874q39 10 99.5 10t98.5 -10v-1874q-41 -8 -99 -8t-99 8z" />
<glyph unicode="}" horiz-adv-x="708" d="M20 -199l103 31q117 39 117 176v344q0 98 47 184.5t123 120.5v17q-76 37 -123 123t-47 184v342q0 141 -117 176l-103 33q-8 31 4.5 76t34.5 69l105 -18q131 -20 211 -106.5t80 -227.5v-348q0 -88 47 -152.5t121 -87.5q10 -27 10 -70.5t-10 -70.5q-74 -23 -121 -88.5 t-47 -151.5v-350q0 -141 -79 -226t-212 -108l-105 -18q-23 25 -35 71t-4 76z" />
<glyph unicode="~" horiz-adv-x="1200" d="M82 543l27 47q100 180 282 180q74 0 174 -41l160 -74q63 -25 106 -24q35 -2 65 15.5t58 49.5l39 45q37 -2 75 -25.5t50 -56.5l-26 -47q-100 -180 -283 -180q-39 2 -83 10.5t-91 30.5l-162 74q-25 10 -49.5 17t-50.5 7q-68 2 -127 -65l-39 -45q-37 4 -75 26.5t-50 55.5z " />
<glyph unicode="&#xa1;" horiz-adv-x="589" d="M164 905q0 27 4 53.5t14 45.5q23 12 52.5 18t62.5 6q31 0 54.5 -2t44 -13.5t28.5 -37t8 -70.5q0 -67 -18 -94q-41 -25 -117 -25q-37 0 -62.5 4.5t-42 16.5t-22.5 35.5t-6 62.5zM166 -387l51 999q35 10 82 11q45 -1 82 -11l25 -954q-84 -61 -226 -61z" />
<glyph unicode="&#xa2;" horiz-adv-x="958" d="M86 678q0 217 95 348t245 164v205q31 6 82 6t88 -6v-201q68 -10 121 -41t89 -72t55.5 -89t19.5 -93q0 -125 -113 -125q-18 0 -38.5 3t-43.5 7v29q0 94 -42 158.5t-138 64.5q-199 0 -199 -364q0 -362 230 -363q121 0 243 105q70 -43 94 -119q-111 -125 -284 -156v-202 q-35 -6 -86 -7q-53 1 -84 7v202q-88 14 -151.5 61.5t-103.5 119t-59.5 162.5t-19.5 196z" />
<glyph unicode="&#xa3;" horiz-adv-x="1083" d="M112.5 145q0.5 43 28.5 82l33 52q100 145 100 268h-155q-25 78 0 162q18 0 58 -1t61 -1q-57 133 -69.5 189t-12.5 93q0 141 106.5 253t300.5 112q242 0 408 -152q-4 -43 -37 -84t-74 -55q-135 113 -280 113q-92 0 -151.5 -53.5t-59.5 -145.5q0 -74 32.5 -164t38.5 -106 l377 2q25 -80 0 -162q-231 0 -346 2q0 -186 -133 -373l6 -6q188 10 287 10h377q0 -49 -4 -78q-18 -104 -142 -104h-723q-27 104 -26.5 147z" />
<glyph unicode="&#xa4;" horiz-adv-x="1177" d="M66 279l145 157q-72 109 -72 246q0 143 70 250l-143 158q37 68 114 116l160 -147q106 68 246 67q139 0 248 -67l161 149q72 -41 117 -114l-147 -160q72 -113 71 -250q0 -66 -18.5 -129t-52.5 -119l145 -157q-37 -68 -115 -117l-164 149q-102 -66 -243 -65q-137 0 -246 65 l-162 -147q-74 43 -114 115zM354 684q0 -59 16.5 -109.5t46 -88t72.5 -59t99 -21.5q55 0 98 21.5t74 59t47 88t16 109.5q0 119 -62 200t-173 81t-172.5 -81t-61.5 -200z" />
<glyph unicode="&#xa5;" horiz-adv-x="1056" d="M49 1307q74 41 141.5 41t102.5 -82l151 -367q33 -74 84 -237h13q49 156 88 239l180 430q47 12 92 12t100 -14l9 -12l-232 -514h162q8 -39 8 -75t-8 -71h-227l-72 -161h299q8 -39 8 -75t-8 -71h-309v-350q-47 -8 -107.5 -8t-101.5 8v350h-309q-10 45 -10.5 72t10.5 74h299 l-72 161h-227q-10 45 -10.5 72t10.5 74h161z" />
<glyph unicode="&#xa6;" horiz-adv-x="509" d="M158 -289v793q35 10 95 10t101 -10v-793q-43 -8 -100 -8t-96 8zM158 793v792q35 10 95 10t101 -10v-792q-43 -8 -100 -8t-96 8z" />
<glyph unicode="&#xa7;" horiz-adv-x="993" d="M66 582q0 92 59 170.5t158 132.5q-141 92 -142 231q0 72 29 129.5t78 97t116.5 61t145.5 21.5q158 0 317 -71q0 -43 -16 -87t-45 -67q-78 35 -141.5 49.5t-110.5 14.5q-84 0 -122 -36t-38 -85q0 -80 129 -131l119 -47q156 -61 243 -140t87 -202q0 -184 -217 -304 q141 -98 141 -235q0 -139 -107.5 -222t-289.5 -83q-186 0 -324 86q0 39 19.5 83t48.5 66q150 -74 276 -73q76 0 120 32.5t44 87.5q0 80 -129 134l-119 47q-156 61 -242.5 138t-86.5 202zM274 614q-2 -68 53.5 -108.5t159.5 -81.5l78 -31q156 80 156 197q0 66 -53.5 108.5 t-157.5 83.5l-80 31q-156 -80 -156 -199z" />
<glyph unicode="&#xa8;" horiz-adv-x="815" d="M102 1253q0 68 31 87.5t84 19.5q63 0 89 -20.5t26 -86.5t-25.5 -85t-91.5 -19q-63 0 -96 25q-10 16 -13.5 36.5t-3.5 42.5zM483 1253q0 66 24.5 86.5t90.5 20.5q59 0 87 -16.5t28 -90.5q0 -68 -23.5 -86t-89.5 -18q-61 0 -100 25q-10 18 -13.5 38.5t-3.5 40.5z" />
<glyph unicode="&#xa9;" horiz-adv-x="1642" d="M82 698q0 156 57.5 291t156.5 234.5t234.5 157t288.5 57.5q156 0 291 -57.5t235.5 -158t158 -234.5t57.5 -290q0 -158 -57.5 -292t-157 -233t-234.5 -155.5t-291 -56.5q-315 0 -526 211q-213 213 -213 526zM260 698q0 -121 42 -227t117 -186t177 -127t225 -47t225.5 47 t178 127t117.5 186.5t42 226.5q0 121 -43 228.5t-117.5 187.5t-178 127t-224.5 47q-241 0 -401 -172t-160 -418zM467 709q0 94 28.5 168.5t78 126t114 78t135.5 26.5q72 0 128.5 -21.5t96 -57.5t61 -79t21.5 -86q0 -96 -94 -96q-34 0 -69 10v21q0 68 -35 120t-113 52 q-80 0 -125 -70t-45 -201q0 -129 50.5 -197.5t142.5 -68.5q47 0 99 20.5t106 63.5q53 -27 75 -102q-53 -53 -137 -88t-166 -35q-88 0 -153.5 29.5t-109.5 85t-66.5 132t-22.5 169.5z" />
<glyph unicode="&#xaa;" horiz-adv-x="868" d="M82 836q0 135 85 199.5t226 64.5q23 0 61 -2t91 -6v57q0 131 -121 131q-113 0 -258 -57q-51 53 -51 129q174 74 319 73q291 0 291 -270v-315q0 -103 51 -140q-4 -25 -26.5 -52t-49.5 -42q-94 14 -133 96q-115 -104 -235 -104q-61 0 -107.5 19.5t-78 51t-48 74.5t-16.5 93 zM260 852q0 -43 26.5 -79t67.5 -36h13q90 0 178 88v142q-41 4 -73 6t-60 2q-70 0 -111 -32t-41 -91z" />
<glyph unicode="&#xab;" horiz-adv-x="1142" d="M68 522.5q0 38.5 12 67.5l395 377q37 -10 72 -43t47 -68l-285 -330l295 -340q-12 -35 -48 -67.5t-73 -42.5l-403 379q-12 29 -12 67.5zM532.5 521.5q-0.5 39.5 12.5 68.5l395 377q37 -10 72 -43t47 -68l-285 -330l295 -340q-12 -35 -48 -67.5t-73 -42.5l-403 379 q-12 27 -12.5 66.5z" />
<glyph unicode="&#xac;" d="M96 610.5q0 53.5 8 94.5h852l13 -15v-454q-39 -8 -93.5 -8.5t-101.5 8.5v192l2 96l-98 -2h-574q-8 35 -8 88.5z" />
<glyph unicode="&#xad;" horiz-adv-x="716" d="M94 546q0 56 10 91h508q10 -37 10 -92t-10 -90h-508q-10 35 -10 91z" />
<glyph unicode="&#xae;" horiz-adv-x="1214" d="M70 985q0 111 40 209t114.5 171t172 115t209.5 42q111 0 211.5 -42t173 -115t112.5 -171t40 -209q0 -113 -42 -210t-115 -170t-171 -114.5t-209 -41.5q-225 -1 -381 155t-155 381zM211 985q0 -84 29.5 -157.5t83 -129t125 -88t157.5 -32.5q84 0 157 32.5t126 88t84 129 t31 157.5q0 82 -31 157t-81 131t-126 89t-160 33q-167 0 -282 -121q-113 -119 -113 -289zM408 735v506l6 6q66 2 120 3t97 1q86 0 135 -41.5t49 -111.5q0 -100 -102 -135q33 -12 67 -80l27 -54q20 -39 45 -57q-29 -47 -78 -47q-49 -2 -84 63l-51 95q-23 41 -61 41h-46v-189 q-35 -10 -61 -10q-29 0 -63 10zM532 1020q33 4 62 4t49.5 5t31.5 17.5t11 40.5q0 68 -76 68h-78v-135z" />
<glyph unicode="&#xaf;" horiz-adv-x="815" d="M111 1262q0 49 10 86h575q8 -39 8 -85t-8 -85h-575q-10 35 -10 84z" />
<glyph unicode="&#xb0;" horiz-adv-x="669" d="M37 1073q0 66 23.5 122t63.5 96t94 62.5t116 22.5q63 0 118.5 -23.5t95.5 -63.5t62.5 -96t22.5 -120q0 -63 -22.5 -117.5t-62.5 -94.5t-94 -63.5t-120 -23.5q-63 0 -117.5 22.5t-94.5 62.5t-62.5 94.5t-22.5 119.5zM199 1075q0 -68 35.5 -112.5t99.5 -44.5q66 0 101.5 45 t35.5 110q0 68 -38 113t-99 45q-29 0 -54.5 -10t-43.5 -33t-27.5 -52.5t-9.5 -60.5z" />
<glyph unicode="&#xb1;" d="M129 87q0 46 8 89h811q8 -43 8 -89t-8 -87h-811q-8 41 -8 87zM129 706q0 46 8 87h215l97 -2l-3 102v209q41 8 97.5 8t95.5 -8v-209l-2 -102l96 2h215q8 -41 8 -87.5t-8 -84.5h-215l-96 2l2 -101v-211q-39 -8 -95.5 -8t-97.5 8v211l3 101l-97 -2h-215q-8 39 -8 85z" />
<glyph unicode="&#xb2;" horiz-adv-x="860" d="M113 803q0 109 155 237l150 123q45 37 67.5 73t22.5 77q0 47 -31 77.5t-78 30.5q-90 0 -137 -114q-37 4 -79 22.5t-58 40.5q29 92 105.5 152.5t193.5 60.5q59 0 110.5 -21.5t88 -56.5t57 -80t20.5 -94q0 -100 -41 -164.5t-127 -130.5l-114 -90q-43 -35 -73 -59.5 t-40 -46.5q51 8 95 12t79 4h244q0 -88 -20.5 -126t-84.5 -38h-446q-59 78 -59 111z" />
<glyph unicode="&#xb3;" horiz-adv-x="860" d="M104 774q12 72 72 125q53 -37 102.5 -53.5t90.5 -16.5q74 0 117.5 42t43.5 100q0 72 -42 108.5t-97 36.5q-25 0 -46 -5t-38 -13q-23 10 -44 37.5t-27 58.5l161 162q39 39 80 65l-4 6q-23 -4 -62.5 -7t-99.5 -3h-164q-6 14 -8 32.5t-2 39.5q0 45 13 80h499 q16 -35 24.5 -59.5t8.5 -45.5q0 -40 -35 -71l-119 -117q-23 -23 -59 -45q104 0 176 -70.5t72 -199.5q0 -63 -25.5 -114.5t-72 -87.5t-110 -55.5t-138.5 -19.5q-152 0 -267 90z" />
<glyph unicode="&#xb4;" horiz-adv-x="815" d="M252 1188l295 325q47 -16 90 -55t59 -84l-350 -272q-29 8 -55.5 32.5t-38.5 53.5z" />
<glyph unicode="&#xb6;" horiz-adv-x="1374" d="M86 967q0 111 34 193.5t95 138t148.5 83t193.5 27.5q27 0 84 -2t150 -6l12 -12v-1229q0 -274 -97.5 -376.5t-295.5 -102.5q-141 0 -267 49q0 98 52 161q59 -20 112 -31.5t99 -11.5q90 0 136 59.5t46 215.5v391h-39q-104 0 -189.5 29.5t-145.5 87t-94 141.5t-34 195z M936 -272v1658l12 13h369q10 -37 10 -94t-10 -93h-80h-49.5t-34.5 2v-1486q-25 -4 -53.5 -6.5t-57.5 -2.5q-31 0 -57 2.5t-49 6.5z" />
<glyph unicode="&#xb7;" horiz-adv-x="624" d="M176 582q1 65 19 100q47 29 118 29q68 0 102 -17.5t34 -111.5q0 -84 -27 -106.5t-107 -22.5q-37 0 -63.5 4t-45 16t-24.5 39t-6 70z" />
<glyph unicode="&#xb8;" horiz-adv-x="815" d="M231 -416q2 53 43 107q25 -16 50.5 -22.5t48.5 -6.5q41 0 68.5 19.5t27.5 50.5q0 49 -25.5 68.5t-62.5 19.5q-29 0 -47 -8q-25 7 -37 36q14 45 26.5 83t26.5 69h133q-14 -29 -22 -47.5t-12 -28.5q86 -4 138 -53t52 -131q0 -43 -19.5 -79t-52 -61.5t-77 -41t-93.5 -15.5 q-100 0 -166 41z" />
<glyph unicode="&#xb9;" horiz-adv-x="860" d="M121 1286q104 59 166.5 125t103.5 156q39 10 83 10t87 -10v-715h170q8 -31 8 -76t-8 -80h-555q-8 39 -8 82t8 74h209v326q0 18 3 68t3 65q-59 -82 -190 -140q-66 33 -80 115z" />
<glyph unicode="&#xba;" horiz-adv-x="845" d="M74 1010q0 88 20.5 163.5t63.5 132t108.5 88t155.5 31.5q145 0 235 -84q115 -125 115 -331q0 -88 -21.5 -163t-65.5 -130t-109.5 -87t-153.5 -32t-153.5 32t-108.5 87t-64.5 130t-21.5 163zM256 1014q0 -272 168 -273q164 0 164 271q0 272 -164 272q-88 0 -128 -75.5 t-40 -194.5z" />
<glyph unicode="&#xbb;" horiz-adv-x="1142" d="M74 856q12 33 49 66.5t72 44.5l405 -379q27 -68 0 -133l-397 -379q-35 10 -70 43.5t-47 68.5l283 330zM539 856q12 33 49 66.5t71 44.5l406 -379q27 -68 0 -133l-397 -379q-35 10 -70 43.5t-47 68.5l283 330z" />
<glyph unicode="&#xbc;" horiz-adv-x="1937" d="M74 1120q104 59 166.5 125t103.5 156q39 10 83 10t87 -10v-715h170q8 -31 8 -76t-8 -80h-555q-8 39 -8 82t8 74h209v326q0 18 3 68t3 65q-59 -82 -190 -140q-66 33 -80 115zM553 0l770 1399q41 12 109.5 11t99.5 -11l-772 -1399q-41 -12 -109.5 -11t-97.5 11zM1184 269.5 q0 37.5 31 99.5l239 518q43 4 94.5 -7.5t77.5 -33.5l-155 -336q-66 -139 -105 -190l4 -4q51 4 146 4h37q-2 16 -2 49v67q0 59 32.5 94t85.5 35h52l6 -6v-135l-2 -104h125q6 -29 6 -73t-14 -79h-117v-160q-33 -8 -84 -8t-90 8v86l2 74l-84 -2h-244q-41 66 -41 103.5z" />
<glyph unicode="&#xbd;" horiz-adv-x="1937" d="M74 1120q104 59 166.5 125t103.5 156q39 10 83 10t87 -10v-715h170q8 -31 8 -76t-8 -80h-555q-8 39 -8 82t8 74h209v326q0 18 3 68t3 65q-59 -82 -190 -140q-66 33 -80 115zM522 0l770 1399q41 12 109.5 11t99.5 -11l-772 -1399q-41 -12 -109.5 -11t-97.5 11zM1227 113 q0 109 155 237l150 123q45 37 67.5 73t22.5 77q0 47 -31 77.5t-78 30.5q-90 0 -137 -114q-37 4 -79 22.5t-58 40.5q29 92 105.5 152.5t193.5 60.5q59 0 110.5 -21.5t88 -56.5t57 -80t20.5 -94q0 -100 -41 -164.5t-127 -130.5l-114 -90q-43 -35 -73 -59.5t-40 -46.5 q51 8 95 12t79 4h244q0 -88 -20.5 -126t-84.5 -38h-446q-59 78 -59 111z" />
<glyph unicode="&#xbe;" horiz-adv-x="1937" d="M104 610q12 72 72 125q53 -37 102.5 -53.5t90.5 -16.5q74 0 117.5 42t43.5 100q0 72 -42 108.5t-97 36.5q-25 0 -46 -5t-38 -13q-23 10 -44 37.5t-27 58.5l161 162q39 39 80 65l-4 6q-23 -4 -62.5 -7t-99.5 -3h-164q-6 14 -8 32.5t-2 39.5q0 45 13 80h499 q16 -35 24.5 -59.5t8.5 -45.5q0 -40 -35 -71l-119 -117q-23 -23 -59 -45q104 0 176 -70.5t72 -199.5q0 -63 -25.5 -114.5t-72 -87.5t-110 -55.5t-138.5 -19.5q-152 0 -267 90zM522 0l770 1399q41 12 109.5 11t99.5 -11l-772 -1399q-41 -12 -109.5 -11t-97.5 11zM1173 269.5 q0 37.5 31 99.5l239 518q43 4 94.5 -7.5t77.5 -33.5l-155 -336q-66 -139 -105 -190l4 -4q51 4 146 4h37q-2 16 -2 49v67q0 59 32.5 94t85.5 35h52l6 -6v-135l-2 -104h125q6 -29 6 -73t-14 -79h-117v-160q-33 -8 -84 -8t-90 8v86l2 74l-84 -2h-244q-41 66 -41 103.5z" />
<glyph unicode="&#xbf;" horiz-adv-x="811" d="M23 -68q0 246 268 398l127 71l16 207q14 6 37 9.5t45 3.5q51 0 82 -13l12 -305l-18 -22l-100 -50q-129 -63 -185.5 -137t-56.5 -149q0 -74 54 -124t153 -50q53 0 118.5 17t141.5 58q29 -25 52.5 -71.5t25.5 -87.5q-195 -104 -381 -105q-186 0 -288.5 95.5t-102.5 254.5z M381 905q0 45 8 70.5t26.5 35t43 13.5t53.5 4t53.5 -2t46 -13.5t28.5 -36t7 -71.5q0 -65 -16 -94q-43 -25 -119 -25q-33 0 -57.5 3.5t-42 14.5t-24.5 34.5t-7 66.5z" />
<glyph unicode="&#xc0;" horiz-adv-x="1251" d="M41 14l463 1385q43 8 125 8t123 -8l458 -1385q-43 -29 -110.5 -28.5t-96 25t-49.5 89.5l-75 240l-123 -2h-281l-119 2l-108 -342q-35 -8 -92.5 -8t-108.5 14zM352 1675q6 49 34.5 99t59.5 73l416 -245q-16 -80 -63 -111zM412 516l104 2h205q84 -2 102 -2l-94 297 q-72 229 -108 371h-11q-25 -113 -80 -297z" />
<glyph unicode="&#xc1;" horiz-adv-x="1251" d="M41 14l463 1385q43 8 125 8t123 -8l458 -1385q-43 -29 -110.5 -28.5t-96 25t-49.5 89.5l-75 240l-123 -2h-281l-119 2l-108 -342q-35 -8 -92.5 -8t-108.5 14zM412 516l104 2h205q84 -2 102 -2l-94 297q-72 229 -108 371h-11q-25 -113 -80 -297zM424 1602l415 245 q31 -23 60 -73t35 -99l-447 -184q-23 14 -41 47t-22 64z" />
<glyph unicode="&#xc2;" horiz-adv-x="1251" d="M41 14l463 1385q43 8 125 8t123 -8l458 -1385q-43 -29 -110.5 -28.5t-96 25t-49.5 89.5l-75 240l-123 -2h-281l-119 2l-108 -342q-35 -8 -92.5 -8t-108.5 14zM299 1587l233 232q96 18 189 0l229 -217q-10 -33 -37.5 -59t-54.5 -34l-231 154l-236 -170q-27 10 -55.5 38 t-36.5 56zM412 516l104 2h205q84 -2 102 -2l-94 297q-72 229 -108 371h-11q-25 -113 -80 -297z" />
<glyph unicode="&#xc3;" horiz-adv-x="1251" d="M41 14l463 1385q43 8 125 8t123 -8l458 -1385q-43 -29 -110.5 -28.5t-96 25t-49.5 89.5l-75 240l-123 -2h-281l-119 2l-108 -342q-35 -8 -92.5 -8t-108.5 14zM258 1606l18 41q33 72 90.5 110.5t122.5 38.5q59 0 117 -33l115 -53q14 -8 29.5 -13t31.5 -5q41 -2 86 51 l25 29q76 -2 106 -66l-18 -39q-70 -150 -209 -149q-51 -1 -121 30l-115 56q-18 8 -34.5 13t-32.5 5q-23 2 -40.5 -11.5t-39.5 -39.5l-25 -29q-31 0 -62.5 18.5t-43.5 45.5zM412 516l104 2h205q84 -2 102 -2l-94 297q-72 229 -108 371h-11q-25 -113 -80 -297z" />
<glyph unicode="&#xc4;" horiz-adv-x="1251" d="M41 14l463 1385q43 8 125 8t123 -8l458 -1385q-43 -29 -110.5 -28.5t-96 25t-49.5 89.5l-75 240l-123 -2h-281l-119 2l-108 -342q-35 -8 -92.5 -8t-108.5 14zM295 1616q0 47 18 84q18 12 44 18t54 6q55 0 88 -17t33 -91q0 -68 -24.5 -88.5t-96.5 -20.5q-78 0 -97 28 t-19 81zM412 516l104 2h205q84 -2 102 -2l-94 297q-72 229 -108 371h-11q-25 -113 -80 -297zM725 1616q0 23 5 45.5t15 38.5q37 25 97 24q57 0 88.5 -16t31.5 -92q0 -68 -22.5 -88.5t-97.5 -20.5q-72 0 -94.5 23.5t-22.5 85.5z" />
<glyph unicode="&#xc5;" horiz-adv-x="1251" d="M41 14l461 1381q-121 66 -121 204q0 47 18.5 89.5t51 74t77.5 50t99 18.5q111 0 180.5 -66.5t69.5 -165.5q0 -141 -125 -204l458 -1381q-45 -29 -110 -28q-68 0 -96.5 24.5t-49.5 89.5l-75 240l-404 -2l-119 2l-108 -342q-16 -4 -39 -6t-47 -2q-29 0 -57.5 3t-57.5 11z M412 516l309 2l102 -2l-94 297q-37 117 -63.5 208t-44.5 163h-11q-25 -111 -80 -297zM524 1597q0 -53 33 -81.5t80 -28.5t69.5 34.5t22.5 75.5q0 43 -22.5 78t-77.5 35q-45 0 -75 -31.5t-30 -81.5z" />
<glyph unicode="&#xc6;" horiz-adv-x="1794" d="M31 16l671 1362q43 20 132 21h823q8 -43 8 -89t-18 -96h-617l2 -133v-286l127 2h387q10 -37 10 -91.5t-10 -89.5h-387q-80 0 -127 2v-333q0 -18 -1 -52t-1 -55q59 6 135 6h533q0 -55 -6 -84q-14 -102 -140 -102h-608q-57 0 -90 36t-33 99v207l-112 -2h-183l-108 2 l-166 -342q-41 -8 -101.5 -8t-111.5 14zM502 516l84 2h125l110 -2v668h-10q-70 -172 -129 -297z" />
<glyph unicode="&#xc7;" horiz-adv-x="1236" d="M100 692q0 184 43 321.5t118 228.5t175.5 137t212.5 46q117 0 210 -32.5t159.5 -88t101.5 -127t35 -151.5q0 -123 -123 -123h-20.5t-29.5 3t-27.5 7.5t-12.5 14.5q0 63 -16.5 121.5t-49 103.5t-90 70.5t-135.5 25.5q-158 0 -239.5 -141t-81.5 -406q0 -262 88 -400 t260 -138t358 155q84 -55 109 -141q-170 -170 -434 -201q-20 -39 -23 -53q86 -4 138.5 -53t52.5 -131q0 -43 -19.5 -79t-52.5 -61.5t-77 -41t-93 -15.5q-100 0 -166 41q2 53 43 107q45 -29 94 -29q53 0 77 22.5t24 57.5q0 41 -29 60.5t-62 19.5q-25 0 -45 -10q-24 7 -36 36 q20 70 43 129q-129 10 -220.5 74t-148.5 162t-84 222t-27 257z" />
<glyph unicode="&#xc8;" horiz-adv-x="1159" d="M184 133v1253l15 13h823q6 -33 6 -87.5t-16 -97.5h-615l2 -133v-286l127 2h385q10 -37 10.5 -91.5t-10.5 -89.5h-385q-80 0 -127 2v-335l-2 -105q61 6 135 6h531q0 -55 -6 -84q-18 -102 -139 -102h-609q-57 0 -91 36t-34 99zM336 1675q6 49 34.5 99t59.5 73l416 -245 q-16 -80 -63 -111z" />
<glyph unicode="&#xc9;" horiz-adv-x="1159" d="M184 133v1253l15 13h823q6 -33 6 -87.5t-16 -97.5h-615l2 -133v-286l127 2h385q10 -37 10.5 -91.5t-10.5 -89.5h-385q-80 0 -127 2v-335l-2 -105q61 6 135 6h531q0 -55 -6 -84q-18 -102 -139 -102h-609q-57 0 -91 36t-34 99zM406 1602l415 245q31 -23 60 -73t35 -99 l-447 -184q-23 14 -41 47t-22 64z" />
<glyph unicode="&#xca;" horiz-adv-x="1159" d="M184 133v1253l15 13h823q6 -33 6 -87.5t-16 -97.5h-615l2 -133v-286l127 2h385q10 -37 10.5 -91.5t-10.5 -89.5h-385q-80 0 -127 2v-335l-2 -105q61 6 135 6h531q0 -55 -6 -84q-18 -102 -139 -102h-609q-57 0 -91 36t-34 99zM283 1587l233 232q96 18 189 0l229 -217 q-10 -33 -37.5 -59t-54.5 -34l-231 154l-236 -170q-27 10 -55.5 38t-36.5 56z" />
<glyph unicode="&#xcb;" horiz-adv-x="1159" d="M184 133v1253l15 13h823q6 -33 6 -87.5t-16 -97.5h-615l2 -133v-286l127 2h385q10 -37 10.5 -91.5t-10.5 -89.5h-385q-80 0 -127 2v-335l-2 -105q61 6 135 6h531q0 -55 -6 -84q-18 -102 -139 -102h-609q-57 0 -91 36t-34 99zM279 1616q0 47 18 84q18 12 44 18t54 6 q55 0 88 -17t33 -91q0 -68 -24.5 -88.5t-96.5 -20.5q-78 0 -97 28t-19 81zM709 1616q0 23 5 45.5t15 38.5q37 25 97 24q57 0 88.5 -16t31.5 -92q0 -68 -22.5 -88.5t-97.5 -20.5q-72 0 -94.5 23.5t-22.5 85.5z" />
<glyph unicode="&#xcc;" horiz-adv-x="602" d="M29 1675q6 49 34.5 99t59.5 73l416 -245q-16 -80 -63 -111zM193 0v1399q41 8 107.5 8t109.5 -8v-1399q-43 -8 -109.5 -8t-107.5 8z" />
<glyph unicode="&#xcd;" horiz-adv-x="602" d="M97 1602l415 245q31 -23 60 -73t35 -99l-447 -184q-23 14 -41 47t-22 64zM193 0v1399q41 8 107.5 8t109.5 -8v-1399q-43 -8 -109.5 -8t-107.5 8z" />
<glyph unicode="&#xce;" horiz-adv-x="602" d="M-26 1587l233 232q96 18 189 0l229 -217q-10 -33 -37.5 -59t-54.5 -34l-231 154l-236 -170q-27 10 -55.5 38t-36.5 56zM193 0v1399q41 8 107.5 8t109.5 -8v-1399q-43 -8 -109.5 -8t-107.5 8z" />
<glyph unicode="&#xcf;" horiz-adv-x="602" d="M-30 1616q0 47 18 84q18 12 44 18t54 6q55 0 88 -17t33 -91q0 -68 -24.5 -88.5t-96.5 -20.5q-78 0 -97 28t-19 81zM193 0v1399q41 8 107.5 8t109.5 -8v-1399q-43 -8 -109.5 -8t-107.5 8zM400 1616q0 23 5 45.5t15 38.5q37 25 97 24q57 0 88.5 -16t31.5 -92 q0 -68 -22.5 -88.5t-97.5 -20.5q-72 0 -94.5 23.5t-22.5 85.5z" />
<glyph unicode="&#xd0;" horiz-adv-x="1359" d="M51 707q0 25 2 48t6 44h158v587l14 15q178 6 451 6q166 0 276.5 -55.5t176 -151.5t93 -225t27.5 -277q0 -205 -45 -352.5t-172 -251.5q-31 -25 -73.5 -44t-91 -32.5t-98.5 -20.5t-95 -7q-47 0 -157.5 2t-291.5 6l-14 14v606h-158q-4 16 -6 40t-2 49zM432 166h250 q100 0 166.5 39t106.5 109.5t56.5 169t16.5 216.5q0 256 -78 393.5t-268 137.5h-250v-432h316q4 -25 7 -47.5t3 -44.5q0 -41 -10 -89h-316v-452z" />
<glyph unicode="&#xd1;" horiz-adv-x="1392" d="M186 0v1397q57 10 130 10t130 -8l433 -858q29 -61 75.5 -167t59.5 -130l8 2q-16 262 -16 516v510q0 74 25.5 104.5t90.5 30.5h72l12 -10v-1395q-57 -10 -131 -10t-131 8l-436 858q-66 137 -129 285l-8 -2q18 -317 18 -502v-639q-49 -8 -102.5 -8t-100.5 8zM332 1606 l18 41q33 72 90.5 110.5t122.5 38.5q59 0 117 -33l115 -53q14 -8 29.5 -13t31.5 -5q41 -2 86 51l25 29q76 -2 106 -66l-18 -39q-70 -150 -209 -149q-51 -1 -121 30l-115 56q-18 8 -34.5 13t-32.5 5q-23 2 -40.5 -11.5t-39.5 -39.5l-25 -29q-31 0 -62.5 18.5t-43.5 45.5z" />
<glyph unicode="&#xd2;" horiz-adv-x="1347" d="M100 698q0 168 38 302.5t111 228.5t179.5 145t245.5 51q137 0 244.5 -50t179 -144t109.5 -229.5t38 -303.5t-38 -302t-109.5 -228t-179 -144.5t-244.5 -50.5q-218 0 -355 123q-219 188 -219 602zM330 711q0 -104 14 -206t53 -181.5t106.5 -128t172.5 -48.5 q113 0 179.5 56.5t102 140.5t47 180.5t11.5 175.5q0 82 -11.5 178.5t-46 179.5t-103.5 138t-181 55q-104 0 -175 -49t-106 -135t-49 -174t-14 -182zM397 1675q6 49 34.5 99t59.5 73l416 -245q-16 -80 -63 -111z" />
<glyph unicode="&#xd3;" horiz-adv-x="1347" d="M100 698q0 168 38 302.5t111 228.5t179.5 145t245.5 51q137 0 244.5 -50t179 -144t109.5 -229.5t38 -303.5t-38 -302t-109.5 -228t-179 -144.5t-244.5 -50.5q-218 0 -355 123q-219 188 -219 602zM330 711q0 -104 14 -206t53 -181.5t106.5 -128t172.5 -48.5 q113 0 179.5 56.5t102 140.5t47 180.5t11.5 175.5q0 82 -11.5 178.5t-46 179.5t-103.5 138t-181 55q-104 0 -175 -49t-106 -135t-49 -174t-14 -182zM465 1602l415 245q31 -23 60 -73t35 -99l-447 -184q-23 14 -41 47t-22 64z" />
<glyph unicode="&#xd4;" horiz-adv-x="1347" d="M100 698q0 168 38 302.5t111 228.5t179.5 145t245.5 51q137 0 244.5 -50t179 -144t109.5 -229.5t38 -303.5t-38 -302t-109.5 -228t-179 -144.5t-244.5 -50.5q-218 0 -355 123q-219 188 -219 602zM330 711q0 -104 14 -206t53 -181.5t106.5 -128t172.5 -48.5 q113 0 179.5 56.5t102 140.5t47 180.5t11.5 175.5q0 82 -11.5 178.5t-46 179.5t-103.5 138t-181 55q-104 0 -175 -49t-106 -135t-49 -174t-14 -182zM344 1587l233 232q96 18 189 0l229 -217q-10 -33 -37.5 -59t-54.5 -34l-231 154l-236 -170q-27 10 -55.5 38t-36.5 56z" />
<glyph unicode="&#xd5;" horiz-adv-x="1347" d="M100 698q0 168 38 302.5t111 228.5t179.5 145t245.5 51q137 0 244.5 -50t179 -144t109.5 -229.5t38 -303.5t-38 -302t-109.5 -228t-179 -144.5t-244.5 -50.5q-218 0 -355 123q-219 188 -219 602zM297 1606l18 41q33 72 90.5 110.5t122.5 38.5q59 0 117 -33l115 -53 q14 -8 29.5 -13t31.5 -5q41 -2 86 51l25 29q76 -2 106 -66l-18 -39q-70 -150 -209 -149q-51 -1 -121 30l-115 56q-18 8 -34.5 13t-32.5 5q-23 2 -40.5 -11.5t-39.5 -39.5l-25 -29q-31 0 -62.5 18.5t-43.5 45.5zM330 711q0 -104 14 -206t53 -181.5t106.5 -128t172.5 -48.5 q113 0 179.5 56.5t102 140.5t47 180.5t11.5 175.5q0 82 -11.5 178.5t-46 179.5t-103.5 138t-181 55q-104 0 -175 -49t-106 -135t-49 -174t-14 -182z" />
<glyph unicode="&#xd6;" horiz-adv-x="1347" d="M100 698q0 168 38 302.5t111 228.5t179.5 145t245.5 51q137 0 244.5 -50t179 -144t109.5 -229.5t38 -303.5t-38 -302t-109.5 -228t-179 -144.5t-244.5 -50.5q-218 0 -355 123q-219 188 -219 602zM330 711q0 -104 14 -206t53 -181.5t106.5 -128t172.5 -48.5 q113 0 179.5 56.5t102 140.5t47 180.5t11.5 175.5q0 82 -11.5 178.5t-46 179.5t-103.5 138t-181 55q-104 0 -175 -49t-106 -135t-49 -174t-14 -182zM340 1616q0 47 18 84q18 12 44 18t54 6q55 0 88 -17t33 -91q0 -68 -24.5 -88.5t-96.5 -20.5q-78 0 -97 28t-19 81zM770 1616 q0 23 5 45.5t15 38.5q37 25 97 24q57 0 88.5 -16t31.5 -92q0 -68 -22.5 -88.5t-97.5 -20.5q-72 0 -94.5 23.5t-22.5 85.5z" />
<glyph unicode="&#xd7;" d="M147 338q203 201 218 215l47 47l-62 64l-203 200q41 94 132 133l202 -202q55 -61 60 -66q16 14 36.5 35.5t26.5 28.5l201 204q88 -39 133 -133l-203 -200q-10 -12 -34.5 -35t-30.5 -29q61 -55 65 -59l203 -203q-43 -100 -133 -131l-201 203l-63 61l-262 -266 q-35 16 -75 54t-57 79z" />
<glyph unicode="&#xd8;" horiz-adv-x="1349" d="M100 700q0 150 35 282t106.5 230.5t179 155.5t255.5 57q156 0 258 -57l82 141q37 -4 79 -26.5t64 -50.5l-94 -164q184 -201 184 -568q0 -147 -33.5 -279t-104.5 -231.5t-179.5 -158t-255.5 -58.5q-150 0 -262 58l-78 -140q-37 4 -79 27t-64 51l90 162q-183 200 -183 569z M324 688q-1 -217 65 -358l457 876q-72 49 -172 49t-168 -46t-108 -123.5t-57 -181t-17 -216.5zM502 193q76 -49 176 -50q98 0 164.5 46.5t106.5 124t57.5 179t17.5 214.5q0 215 -66 362z" />
<glyph unicode="&#xd9;" horiz-adv-x="1370" d="M168 492v903l12 12h84q66 0 93.5 -33t27.5 -106v-776q0 -168 76 -255t223 -87q299 0 299 342v907q23 4 51.5 6t57.5 2q31 0 59 -2t51 -6v-907q0 -250 -139 -384.5t-379 -134.5q-238 0 -377 133.5t-139 385.5zM403 1675q6 49 34.5 99t59.5 73l416 -245q-16 -80 -63 -111z " />
<glyph unicode="&#xda;" horiz-adv-x="1370" d="M168 492v903l12 12h84q66 0 93.5 -33t27.5 -106v-776q0 -168 76 -255t223 -87q299 0 299 342v907q23 4 51.5 6t57.5 2q31 0 59 -2t51 -6v-907q0 -250 -139 -384.5t-379 -134.5q-238 0 -377 133.5t-139 385.5zM475 1602l415 245q31 -23 60 -73t35 -99l-447 -184 q-23 14 -41 47t-22 64z" />
<glyph unicode="&#xdb;" horiz-adv-x="1370" d="M168 492v903l12 12h84q66 0 93.5 -33t27.5 -106v-776q0 -168 76 -255t223 -87q299 0 299 342v907q23 4 51.5 6t57.5 2q31 0 59 -2t51 -6v-907q0 -250 -139 -384.5t-379 -134.5q-238 0 -377 133.5t-139 385.5zM350 1587l233 232q96 18 189 0l229 -217q-10 -33 -37.5 -59 t-54.5 -34l-231 154l-236 -170q-27 10 -55.5 38t-36.5 56z" />
<glyph unicode="&#xdc;" horiz-adv-x="1370" d="M168 492v903l12 12h84q66 0 93.5 -33t27.5 -106v-776q0 -168 76 -255t223 -87q299 0 299 342v907q23 4 51.5 6t57.5 2q31 0 59 -2t51 -6v-907q0 -250 -139 -384.5t-379 -134.5q-238 0 -377 133.5t-139 385.5zM350 1616q0 47 18 84q18 12 44 18t54 6q55 0 88 -17t33 -91 q0 -68 -24.5 -88.5t-96.5 -20.5q-78 0 -97 28t-19 81zM780 1616q0 23 5 45.5t15 38.5q37 25 97 24q57 0 88.5 -16t31.5 -92q0 -68 -22.5 -88.5t-97.5 -20.5q-72 0 -94.5 23.5t-22.5 85.5z" />
<glyph unicode="&#xdd;" horiz-adv-x="1030" d="M18 1374q70 39 125.5 39t82 -21.5t46.5 -72.5l162 -393q41 -102 86 -256h10q23 82 91 260l186 469q39 10 94 10t105 -16l10 -15l-389 -929v-449q-47 -8 -112.5 -8t-106.5 8v453zM320 1602l415 245q31 -23 60 -73t35 -99l-447 -184q-23 14 -41 47t-22 64z" />
<glyph unicode="&#xde;" horiz-adv-x="1169" d="M186 0v1399q20 4 49 6t58 2q31 0 59.5 -2t50.5 -6v-209q70 2 123.5 3t89.5 1q106 0 193.5 -28.5t149 -85t95 -139.5t33.5 -193q0 -111 -33.5 -195t-95 -140.5t-148.5 -86t-194 -29.5h-213v-297q-23 -4 -51 -6t-59 -2q-29 0 -58 2t-49 6zM403 469l205 2q70 0 118 22.5 t78 59.5t43 86t13 106q0 55 -13 105.5t-42 87.5t-76 59.5t-115 22.5h-119t-92 2v-553z" />
<glyph unicode="&#xdf;" horiz-adv-x="1284" d="M31 883q0 23 2 45t6 41l176 -4v71q0 190 122 293t327 103q102 0 185 -29t141.5 -82t90 -129t31.5 -168q0 -78 -31 -160h-4l4 -2q-78 -20 -123 -60t-45 -85q0 -27 17.5 -56.5t58.5 -64.5l76 -68q152 -135 152 -266q0 -63 -28 -116.5t-76 -91.5t-114.5 -59.5t-144.5 -21.5 q-150 0 -272 60q2 37 21.5 82t47.5 69q43 -25 86 -36t84 -11q72 0 121 34t49 87q-2 29 -19.5 65.5t-62.5 75.5l-84 72q-70 59 -102.5 116.5t-32.5 110.5q0 74 54.5 140.5t146.5 103.5q8 41 8 72q0 111 -60.5 182.5t-176.5 71.5q-231 0 -232 -254v-1014q-23 -4 -51.5 -6 t-56.5 -2q-31 0 -59 2t-48 6v801l-176 -2q-4 16 -6 37.5t-2 46.5z" />
<glyph unicode="&#xe0;" horiz-adv-x="1038" d="M88 274q0 168 107.5 254t285.5 86q51 0 100.5 -3t96.5 -11v80q0 182 -168 182q-117 0 -322 -78q-59 51 -61 154q209 94 424 94q160 0 248 -85t88 -257v-420q0 -127 57 -176q-25 -74 -80 -108q-121 23 -164 127q-145 -139 -299 -140q-78 0 -136 25t-98 66.5t-59.5 96 t-19.5 113.5zM229 1374q16 45 58.5 84t89.5 55l294 -325q-29 -68 -92 -86zM299 299q0 -74 37 -116t100 -42q131 0 242 123v195q-41 4 -86 6t-94 2q-94 0 -146.5 -46t-52.5 -122z" />
<glyph unicode="&#xe1;" horiz-adv-x="1038" d="M88 274q0 168 107.5 254t285.5 86q51 0 100.5 -3t96.5 -11v80q0 182 -168 182q-117 0 -322 -78q-59 51 -61 154q209 94 424 94q160 0 248 -85t88 -257v-420q0 -127 57 -176q-25 -74 -80 -108q-121 23 -164 127q-145 -139 -299 -140q-78 0 -136 25t-98 66.5t-59.5 96 t-19.5 113.5zM299 299q0 -74 37 -116t100 -42q131 0 242 123v195q-41 4 -86 6t-94 2q-94 0 -146.5 -46t-52.5 -122zM346 1188l295 325q47 -16 90 -55t59 -84l-350 -272q-29 8 -55.5 32.5t-38.5 53.5z" />
<glyph unicode="&#xe2;" horiz-adv-x="1038" d="M88 274q0 168 107.5 254t285.5 86q51 0 100.5 -3t96.5 -11v80q0 182 -168 182q-117 0 -322 -78q-59 51 -61 154q209 94 424 94q160 0 248 -85t88 -257v-420q0 -127 57 -176q-25 -74 -80 -108q-121 23 -164 127q-145 -139 -299 -140q-78 0 -136 25t-98 66.5t-59.5 96 t-19.5 113.5zM203 1196l217 272q78 27 178 2l201 -258q-31 -67 -103 -94l-190 187l-205 -197q-63 25 -98 88zM299 299q0 -74 37 -116t100 -42q131 0 242 123v195q-41 4 -86 6t-94 2q-94 0 -146.5 -46t-52.5 -122z" />
<glyph unicode="&#xe3;" horiz-adv-x="1038" d="M88 274q0 168 107.5 254t285.5 86q51 0 100.5 -3t96.5 -11v80q0 182 -168 182q-117 0 -322 -78q-59 51 -61 154q209 94 424 94q160 0 248 -85t88 -257v-420q0 -127 57 -176q-25 -74 -80 -108q-121 23 -164 127q-145 -139 -299 -140q-78 0 -136 25t-98 66.5t-59.5 96 t-19.5 113.5zM139 1229l18 41q68 150 205 149q55 0 117 -30l113 -58q14 -8 28.5 -13t30.5 -5q20 0 42 11t44 42l23 29q31 0 61.5 -19.5t42.5 -46.5l-18 -41q-68 -150 -205 -149q-54 -1 -117 30l-113 56q-14 8 -29.5 13t-31.5 5q-47 2 -84 -51l-22 -29q-31 0 -62 18.5 t-43 47.5zM299 299q0 -74 37 -116t100 -42q131 0 242 123v195q-41 4 -86 6t-94 2q-94 0 -146.5 -46t-52.5 -122z" />
<glyph unicode="&#xe4;" horiz-adv-x="1038" d="M88 274q0 168 107.5 254t285.5 86q51 0 100.5 -3t96.5 -11v80q0 182 -168 182q-117 0 -322 -78q-59 51 -61 154q209 94 424 94q160 0 248 -85t88 -257v-420q0 -127 57 -176q-25 -74 -80 -108q-121 23 -164 127q-145 -139 -299 -140q-78 0 -136 25t-98 66.5t-59.5 96 t-19.5 113.5zM196 1253q0 68 31 87.5t84 19.5q63 0 89 -20.5t26 -86.5t-25.5 -85t-91.5 -19q-63 0 -96 25q-10 16 -13.5 36.5t-3.5 42.5zM299 299q0 -74 37 -116t100 -42q131 0 242 123v195q-41 4 -86 6t-94 2q-94 0 -146.5 -46t-52.5 -122zM577 1253q0 66 24.5 86.5 t90.5 20.5q59 0 87 -16.5t28 -90.5q0 -68 -23.5 -86t-89.5 -18q-61 0 -100 25q-10 18 -13.5 38.5t-3.5 40.5z" />
<glyph unicode="&#xe5;" horiz-adv-x="1038" d="M88 274q0 168 107.5 254t285.5 86q51 0 100.5 -3t96.5 -11v80q0 182 -168 182q-117 0 -322 -78q-59 51 -61 154q209 94 424 94q160 0 248 -85t88 -257v-420q0 -127 57 -176q-25 -74 -80 -108q-121 23 -164 127q-145 -139 -299 -140q-78 0 -136 25t-98 66.5t-59.5 96 t-19.5 113.5zM254 1335q0 49 18.5 92t51 74t77.5 49.5t101 18.5q55 0 100 -18.5t77.5 -49.5t51 -74t18.5 -92q0 -47 -18.5 -89t-52 -73.5t-78.5 -50t-98 -18.5t-99.5 18.5t-79 50t-51 73.5t-18.5 89zM299 299q0 -74 37 -116t100 -42q131 0 242 123v195q-41 4 -86 6t-94 2 q-94 0 -146.5 -46t-52.5 -122zM399 1335q0 -47 27.5 -78.5t75.5 -31.5q45 0 73.5 31.5t28.5 78.5t-28.5 80t-73.5 33t-74 -33q-16 -16 -22.5 -36.5t-6.5 -43.5z" />
<glyph unicode="&#xe6;" horiz-adv-x="1599" d="M88 276q0 168 107.5 253t285.5 85q53 0 101.5 -3t95.5 -11v82q0 180 -166 180q-127 0 -324 -78q-59 51 -61 154q209 94 405 94q197 0 279 -125q111 131 295 131q92 0 164.5 -32.5t125 -91t80 -139.5t27.5 -175q0 -43 -4 -83t-12 -79h-596q6 -139 58 -216t179 -77t281 80 q53 -51 66 -137q-158 -115 -388 -115q-227 0 -329 170q-164 -170 -367 -170q-72 0 -128 23.5t-95 65.5t-59.5 97.5t-20.5 116.5zM299 299q0 -74 37 -116t100 -42q154 0 264 142q-18 76 -24 174q-37 4 -80 7t-94 3q-100 0 -151.5 -46t-51.5 -122zM891 592h407v24 q0 117 -48 191t-152 74q-193 0 -207 -289z" />
<glyph unicode="&#xe7;" horiz-adv-x="964" d="M90 489q0 139 35 243t93 171.5t135 101t163 33.5q88 0 156.5 -26.5t117 -69.5t74 -99.5t25.5 -113.5q0 -117 -107 -117q-53 0 -88 9v22q0 231 -180 231q-98 0 -151.5 -94t-53.5 -280q0 -352 232 -353q115 0 247 103q29 -16 55.5 -53t35.5 -72q-125 -125 -306 -148 q-20 -39 -22 -53q86 -4 138 -53t52 -131q0 -43 -19.5 -79t-52 -61.5t-76.5 -41t-93 -15.5q-100 0 -166 41q4 61 43 107q45 -29 94 -29q53 0 75.5 22.5t22.5 57.5q0 41 -27.5 60.5t-60.5 19.5q-23 0 -47 -10q-29 11 -35 36q12 57 43 129q-86 10 -151.5 53.5t-110.5 111 t-67.5 156.5t-22.5 191z" />
<glyph unicode="&#xe8;" horiz-adv-x="1024" d="M90 512q0 113 28.5 210t82 166.5t132.5 109.5t177 40t175 -32.5t130 -91t81 -139.5t28 -175q0 -41 -3.5 -81t-11.5 -81h-602q6 -141 60.5 -217t183.5 -76q61 0 132 18.5t146 59.5q51 -47 68 -135q-164 -115 -385 -115q-117 0 -196.5 41t-130 113t-73 171t-22.5 214z M252 1374q16 45 58.5 84t89.5 55l294 -325q-29 -68 -92 -86zM307 592h414v26q0 117 -50.5 190t-154.5 73q-195 0 -209 -289z" />
<glyph unicode="&#xe9;" horiz-adv-x="1024" d="M90 512q0 113 28.5 210t82 166.5t132.5 109.5t177 40t175 -32.5t130 -91t81 -139.5t28 -175q0 -41 -3.5 -81t-11.5 -81h-602q6 -141 60.5 -217t183.5 -76q61 0 132 18.5t146 59.5q51 -47 68 -135q-164 -115 -385 -115q-117 0 -196.5 41t-130 113t-73 171t-22.5 214z M307 592h414v26q0 117 -50.5 190t-154.5 73q-195 0 -209 -289zM369 1188l295 325q47 -16 90 -55t59 -84l-350 -272q-29 8 -55.5 32.5t-38.5 53.5z" />
<glyph unicode="&#xea;" horiz-adv-x="1024" d="M90 512q0 113 28.5 210t82 166.5t132.5 109.5t177 40t175 -32.5t130 -91t81 -139.5t28 -175q0 -41 -3.5 -81t-11.5 -81h-602q6 -141 60.5 -217t183.5 -76q61 0 132 18.5t146 59.5q51 -47 68 -135q-164 -115 -385 -115q-117 0 -196.5 41t-130 113t-73 171t-22.5 214z M224 1196l217 272q78 27 178 2l201 -258q-31 -67 -103 -94l-190 187l-205 -197q-63 25 -98 88zM307 592h414v26q0 117 -50.5 190t-154.5 73q-195 0 -209 -289z" />
<glyph unicode="&#xeb;" horiz-adv-x="1024" d="M90 512q0 113 28.5 210t82 166.5t132.5 109.5t177 40t175 -32.5t130 -91t81 -139.5t28 -175q0 -41 -3.5 -81t-11.5 -81h-602q6 -141 60.5 -217t183.5 -76q61 0 132 18.5t146 59.5q51 -47 68 -135q-164 -115 -385 -115q-117 0 -196.5 41t-130 113t-73 171t-22.5 214z M217 1253q0 68 31 87.5t84 19.5q63 0 89 -20.5t26 -86.5t-25.5 -85t-91.5 -19q-63 0 -96 25q-10 16 -13.5 36.5t-3.5 42.5zM307 592h414v26q0 117 -50.5 190t-154.5 73q-195 0 -209 -289zM598 1253q0 66 24.5 86.5t90.5 20.5q59 0 87 -16.5t28 -90.5q0 -68 -23.5 -86 t-89.5 -18q-61 0 -100 25q-10 18 -13.5 38.5t-3.5 40.5z" />
<glyph unicode="&#xec;" horiz-adv-x="555" d="M-14 1374q16 45 58.5 84t89.5 55l294 -325q-29 -68 -92 -86zM66 932q0 31 10 78q68 8 129 8h28q78 0 122 -49t44 -133v-836q-39 -8 -105.5 -8t-105.5 8v750q0 57 -20.5 81.5t-69.5 24.5h-22q-10 45 -10 76z" />
<glyph unicode="&#xed;" horiz-adv-x="555" d="M66 932q0 31 10 78q68 8 129 8h28q78 0 122 -49t44 -133v-836q-39 -8 -105.5 -8t-105.5 8v750q0 57 -20.5 81.5t-69.5 24.5h-22q-10 45 -10 76zM105 1188l295 325q47 -16 90 -55t59 -84l-350 -272q-29 8 -55.5 32.5t-38.5 53.5z" />
<glyph unicode="&#xee;" horiz-adv-x="555" d="M-41 1196l217 272q78 27 178 2l201 -258q-31 -67 -103 -94l-190 187l-205 -197q-63 25 -98 88zM66 932q0 31 10 78q68 8 129 8h28q78 0 122 -49t44 -133v-836q-39 -8 -105.5 -8t-105.5 8v750q0 57 -20.5 81.5t-69.5 24.5h-22q-10 45 -10 76z" />
<glyph unicode="&#xef;" horiz-adv-x="555" d="M-48 1253q0 68 31 87.5t84 19.5q63 0 89 -20.5t26 -86.5t-25.5 -85t-91.5 -19q-63 0 -96 25q-10 16 -13.5 36.5t-3.5 42.5zM66 932q0 31 10 78q68 8 129 8h28q78 0 122 -49t44 -133v-836q-39 -8 -105.5 -8t-105.5 8v750q0 57 -20.5 81.5t-69.5 24.5h-22q-10 45 -10 76z M333 1253q0 66 24.5 86.5t90.5 20.5q59 0 87 -16.5t28 -90.5q0 -68 -23.5 -86t-89.5 -18q-61 0 -100 25q-10 18 -13.5 38.5t-3.5 40.5z" />
<glyph unicode="&#xf0;" horiz-adv-x="1058" d="M86 487q0 111 29.5 204t85 162t135.5 106.5t182 37.5q68 0 148 -34q-47 125 -158 237l-203 -141q-62 44 -78 112l176 121q-35 29 -75.5 54.5t-87.5 50.5q6 39 30.5 79t53.5 56q129 -55 233 -135l178 123q68 -51 76 -111l-149 -102q309 -309 309 -805q0 -119 -30 -216.5 t-86 -167t-139 -107.5t-188 -38q-106 0 -188 39t-138.5 107.5t-86 163t-29.5 204.5zM305 485q0 -352 223 -352q226 0 226 369q0 166 -33 276q-90 61 -191 62q-225 0 -225 -355z" />
<glyph unicode="&#xf1;" horiz-adv-x="1118" d="M160 0v1008l12 12h80q111 0 117 -127q150 137 325 137q137 0 205 -91t68 -245v-477q0 -121 34 -186q-53 -45 -124 -45q-70 0 -95.5 33.5t-25.5 101.5v520q0 106 -28 151.5t-95 45.5q-68 0 -138.5 -34t-123.5 -93v-711q-35 -8 -105 -8q-33 0 -59.5 2t-46.5 6zM207 1229 l18 41q68 150 205 149q55 0 117 -30l113 -58q14 -8 28.5 -13t30.5 -5q20 0 42 11t44 42l23 29q31 0 61.5 -19.5t42.5 -46.5l-18 -41q-68 -150 -205 -149q-54 -1 -117 30l-113 56q-14 8 -29.5 13t-31.5 5q-47 2 -84 -51l-22 -29q-31 0 -62 18.5t-43 47.5z" />
<glyph unicode="&#xf2;" horiz-adv-x="1064" d="M90 506q0 119 30 217t86 169t138 108.5t188 37.5t188.5 -37.5t138.5 -108.5t86 -169t30 -217q-1 -275 -146 -420q-113 -113 -297 -113q-106 0 -188 38t-138 108.5t-86 168t-30 218.5zM260 1374q16 45 58.5 84t89.5 55l294 -325q-29 -68 -92 -86zM309 506q0 -371 223 -371 q225 0 226 371q-1 371 -226 371q-223 0 -223 -371z" />
<glyph unicode="&#xf3;" horiz-adv-x="1064" d="M90 506q0 119 30 217t86 169t138 108.5t188 37.5t188.5 -37.5t138.5 -108.5t86 -169t30 -217q-1 -275 -146 -420q-113 -113 -297 -113q-106 0 -188 38t-138 108.5t-86 168t-30 218.5zM309 506q0 -371 223 -371q225 0 226 371q-1 371 -226 371q-223 0 -223 -371zM377 1188 l295 325q47 -16 90 -55t59 -84l-350 -272q-29 8 -55.5 32.5t-38.5 53.5z" />
<glyph unicode="&#xf4;" horiz-adv-x="1064" d="M90 506q0 119 30 217t86 169t138 108.5t188 37.5t188.5 -37.5t138.5 -108.5t86 -169t30 -217q-1 -275 -146 -420q-113 -113 -297 -113q-106 0 -188 38t-138 108.5t-86 168t-30 218.5zM234 1196l217 272q78 27 178 2l201 -258q-31 -67 -103 -94l-190 187l-205 -197 q-63 25 -98 88zM309 506q0 -371 223 -371q225 0 226 371q-1 371 -226 371q-223 0 -223 -371z" />
<glyph unicode="&#xf5;" horiz-adv-x="1064" d="M90 506q0 119 30 217t86 169t138 108.5t188 37.5t188.5 -37.5t138.5 -108.5t86 -169t30 -217q-1 -275 -146 -420q-113 -113 -297 -113q-106 0 -188 38t-138 108.5t-86 168t-30 218.5zM170 1229l18 41q68 150 205 149q55 0 117 -30l113 -58q14 -8 28.5 -13t30.5 -5 q20 0 42 11t44 42l23 29q31 0 61.5 -19.5t42.5 -46.5l-18 -41q-68 -150 -205 -149q-54 -1 -117 30l-113 56q-14 8 -29.5 13t-31.5 5q-47 2 -84 -51l-22 -29q-31 0 -62 18.5t-43 47.5zM309 506q0 -371 223 -371q225 0 226 371q-1 371 -226 371q-223 0 -223 -371z" />
<glyph unicode="&#xf6;" horiz-adv-x="1064" d="M90 506q0 119 30 217t86 169t138 108.5t188 37.5t188.5 -37.5t138.5 -108.5t86 -169t30 -217q-1 -275 -146 -420q-113 -113 -297 -113q-106 0 -188 38t-138 108.5t-86 168t-30 218.5zM227 1253q0 68 31 87.5t84 19.5q63 0 89 -20.5t26 -86.5t-25.5 -85t-91.5 -19 q-63 0 -96 25q-10 16 -13.5 36.5t-3.5 42.5zM309 506q0 -371 223 -371q225 0 226 371q-1 371 -226 371q-223 0 -223 -371zM608 1253q0 66 24.5 86.5t90.5 20.5q59 0 87 -16.5t28 -90.5q0 -68 -23.5 -86t-89.5 -18q-61 0 -100 25q-10 18 -13.5 38.5t-3.5 40.5z" />
<glyph unicode="&#xf7;" d="M106 600q0 53 9 94h856q8 -41 8 -94q0 -25 -2 -48.5t-6 -39.5h-856q-4 16 -6.5 39.5t-2.5 48.5zM418 236q0 37 9 61.5t24.5 32.5t39 12t54.5 4q66 -4 92.5 -15.5t30.5 -94.5q0 -25 -4.5 -46.5t-9.5 -36t-35.5 -22.5t-73.5 -8q-70 -1 -109 24q-18 39 -18 89zM418 963 q0 47 18 90q43 25 109 24q37 0 61.5 -6t37.5 -16.5t18.5 -33t5.5 -58.5q-6 -78 -26.5 -91.5t-98.5 -17.5q-74 0 -107 25q-18 37 -18 84z" />
<glyph unicode="&#xf8;" horiz-adv-x="1069" d="M92 506q0 121 30 219t86 168t138 107.5t186 37.5q102 0 187 -37l72 125q78 -12 120 -67l-77 -135q143 -143 143 -420q0 -121 -29.5 -218.5t-86 -167t-139.5 -107.5t-190 -38q-104 0 -186 37l-74 -125q-78 10 -120 68l77 137q-137 137 -137 416zM293 516q0 -154 37 -242 l307 584q-49 25 -102 25q-66 0 -112 -29t-75 -79t-42 -116.5t-13 -142.5zM426 156q45 -27 109 -27q66 0 111.5 29.5t74.5 80t41 118t12 141.5q0 155 -39 245z" />
<glyph unicode="&#xf9;" horiz-adv-x="1120" d="M117 979q51 45 133 45q113 0 112 -133v-522q0 -106 27 -151.5t94.5 -45.5t137 34t124.5 91v715q57 8 104.5 8t108.5 -8v-725q0 -143 58 -195q-23 -74 -80 -106q-129 23 -172 147q-160 -152 -342 -151q-135 0 -202.5 91.5t-67.5 243.5v478q0 123 -35 184zM276 1374 q16 45 58.5 84t89.5 55l294 -325q-29 -68 -92 -86z" />
<glyph unicode="&#xfa;" horiz-adv-x="1120" d="M117 979q51 45 133 45q113 0 112 -133v-522q0 -106 27 -151.5t94.5 -45.5t137 34t124.5 91v715q57 8 104.5 8t108.5 -8v-725q0 -143 58 -195q-23 -74 -80 -106q-129 23 -172 147q-160 -152 -342 -151q-135 0 -202.5 91.5t-67.5 243.5v478q0 123 -35 184zM395 1188 l295 325q47 -16 90 -55t59 -84l-350 -272q-29 8 -55.5 32.5t-38.5 53.5z" />
<glyph unicode="&#xfb;" horiz-adv-x="1120" d="M117 979q51 45 133 45q113 0 112 -133v-522q0 -106 27 -151.5t94.5 -45.5t137 34t124.5 91v715q57 8 104.5 8t108.5 -8v-725q0 -143 58 -195q-23 -74 -80 -106q-129 23 -172 147q-160 -152 -342 -151q-135 0 -202.5 91.5t-67.5 243.5v478q0 123 -35 184zM250 1196 l217 272q78 27 178 2l201 -258q-31 -67 -103 -94l-190 187l-205 -197q-63 25 -98 88z" />
<glyph unicode="&#xfc;" horiz-adv-x="1120" d="M117 979q51 45 133 45q113 0 112 -133v-522q0 -106 27 -151.5t94.5 -45.5t137 34t124.5 91v715q57 8 104.5 8t108.5 -8v-725q0 -143 58 -195q-23 -74 -80 -106q-129 23 -172 147q-160 -152 -342 -151q-135 0 -202.5 91.5t-67.5 243.5v478q0 123 -35 184zM243 1253 q0 68 31 87.5t84 19.5q63 0 89 -20.5t26 -86.5t-25.5 -85t-91.5 -19q-63 0 -96 25q-10 16 -13.5 36.5t-3.5 42.5zM624 1253q0 66 24.5 86.5t90.5 20.5q59 0 87 -16.5t28 -90.5q0 -68 -23.5 -86t-89.5 -18q-61 0 -100 25q-10 18 -13.5 38.5t-3.5 40.5z" />
<glyph unicode="&#xfd;" horiz-adv-x="958" d="M10 -406q0 35 12.5 78t34.5 66q68 -27 160 -27q88 0 143.5 62.5t94.5 191.5l6 25q-66 2 -102.5 25.5t-55.5 84.5l-270 895q74 31 129 31q80 0 106 -94l140 -471q10 -33 28.5 -107.5t46.5 -193.5q2 -14 19 -15l225 867q16 4 37.5 6t48.5 2q29 0 58.5 -3t56.5 -11l6 -13 l-270 -960q-37 -129 -77 -220.5t-92.5 -148.5t-123 -83.5t-164.5 -26.5q-16 0 -49 2t-66 7t-57.5 12t-24.5 19zM324 1188l295 325q47 -16 90 -55t59 -84l-350 -272q-29 8 -55.5 32.5t-38.5 53.5z" />
<glyph unicode="&#xfe;" horiz-adv-x="1081" d="M160 -428v1921l12 12h78q66 0 90.5 -30.5t24.5 -104.5v-457q121 115 278 115q164 0 256 -140t92 -384q0 -123 -31.5 -220.5t-85 -164t-124 -102t-148.5 -35.5q-119 0 -237 67v-354q0 -74 -25 -104.5t-90 -30.5h-78zM365 225q115 -74 200 -73q96 0 153.5 93t57.5 267 t-53 257t-133 83q-133 0 -225 -133v-494z" />
<glyph unicode="&#xff;" horiz-adv-x="958" d="M10 -406q0 35 12.5 78t34.5 66q68 -27 160 -27q88 0 143.5 62.5t94.5 191.5l6 25q-66 2 -102.5 25.5t-55.5 84.5l-270 895q74 31 129 31q80 0 106 -94l140 -471q10 -33 28.5 -107.5t46.5 -193.5q2 -14 19 -15l225 867q16 4 37.5 6t48.5 2q29 0 58.5 -3t56.5 -11l6 -13 l-270 -960q-37 -129 -77 -220.5t-92.5 -148.5t-123 -83.5t-164.5 -26.5q-16 0 -49 2t-66 7t-57.5 12t-24.5 19zM172 1253q0 68 31 87.5t84 19.5q63 0 89 -20.5t26 -86.5t-25.5 -85t-91.5 -19q-63 0 -96 25q-10 16 -13.5 36.5t-3.5 42.5zM553 1253q0 66 24.5 86.5t90.5 20.5 q59 0 87 -16.5t28 -90.5q0 -68 -23.5 -86t-89.5 -18q-61 0 -100 25q-10 18 -13.5 38.5t-3.5 40.5z" />
<glyph unicode="&#x152;" horiz-adv-x="1835" d="M98 698q0 150 36 283t107.5 231.5t180 155.5t254.5 57q31 0 95.5 -6t162.5 -20h772q6 -31 6 -76q0 -29 -3 -57.5t-13 -51.5h-617l2 -421l129 4h385q10 -41 11 -92q0 -51 -11 -89h-385h-73.5t-55.5 2v-335l-2 -103q41 2 75 3t63 1h530q0 -98 -30.5 -142t-114.5 -44h-664 q-188 -25 -262 -25q-145 0 -254 57.5t-180.5 156t-107.5 230.5t-36 281zM328 700q0 -109 16 -209t58 -176.5t114 -123t182 -46.5q80 0 172 29v1051q-55 12 -103 19t-91 7q-98 0 -166 -47t-108 -123.5t-57 -176t-17 -204.5z" />
<glyph unicode="&#x153;" horiz-adv-x="1697" d="M90 504q0 121 30 220t86 169t138 107.5t188 37.5q227 0 336 -176q109 176 312 176q102 0 180 -32.5t131 -91t80.5 -139.5t27.5 -175q0 -41 -3 -81t-11 -81h-598q6 -137 57.5 -215t182.5 -78q127 0 278 78q51 -45 68 -133q-160 -117 -385 -117t-324 166 q-104 -166 -332 -166q-104 0 -187 38t-139 107.5t-86 167t-30 218.5zM309 506q0 -371 223 -371q225 0 226 371q-1 371 -226 371q-223 0 -223 -371zM987 592h408v24q0 119 -48.5 192t-152.5 73q-193 0 -207 -289z" />
<glyph unicode="&#x178;" horiz-adv-x="1030" d="M18 1374q70 39 125.5 39t82 -21.5t46.5 -72.5l162 -393q41 -102 86 -256h10q23 82 91 260l186 469q39 10 94 10t105 -16l10 -15l-389 -929v-449q-47 -8 -112.5 -8t-106.5 8v453zM191 1616q0 47 18 84q18 12 44 18t54 6q55 0 88 -17t33 -91q0 -68 -24.5 -88.5t-96.5 -20.5 q-78 0 -97 28t-19 81zM621 1616q0 23 5 45.5t15 38.5q37 25 97 24q57 0 88.5 -16t31.5 -92q0 -68 -22.5 -88.5t-97.5 -20.5q-72 0 -94.5 23.5t-22.5 85.5z" />
<glyph unicode="&#x2c6;" horiz-adv-x="815" d="M109 1196l217 272q78 27 178 2l201 -258q-31 -67 -103 -94l-190 187l-205 -197q-63 25 -98 88z" />
<glyph unicode="&#x2dc;" horiz-adv-x="815" d="M45 1229l18 41q68 150 205 149q55 0 117 -30l113 -58q14 -8 28.5 -13t30.5 -5q20 0 42 11t44 42l23 29q31 0 61.5 -19.5t42.5 -46.5l-18 -41q-68 -150 -205 -149q-54 -1 -117 30l-113 56q-14 8 -29.5 13t-31.5 5q-47 2 -84 -51l-22 -29q-31 0 -62 18.5t-43 47.5z" />
<glyph unicode="&#x2000;" horiz-adv-x="923" />
<glyph unicode="&#x2001;" horiz-adv-x="1847" />
<glyph unicode="&#x2002;" horiz-adv-x="923" />
<glyph unicode="&#x2003;" horiz-adv-x="1847" />
<glyph unicode="&#x2004;" horiz-adv-x="615" />
<glyph unicode="&#x2005;" horiz-adv-x="461" />
<glyph unicode="&#x2006;" horiz-adv-x="307" />
<glyph unicode="&#x2007;" horiz-adv-x="307" />
<glyph unicode="&#x2008;" horiz-adv-x="230" />
<glyph unicode="&#x2009;" horiz-adv-x="369" />
<glyph unicode="&#x200a;" horiz-adv-x="102" />
<glyph unicode="&#x2010;" horiz-adv-x="716" d="M94 546q0 56 10 91h508q10 -37 10 -92t-10 -90h-508q-10 35 -10 91z" />
<glyph unicode="&#x2011;" horiz-adv-x="716" d="M94 546q0 56 10 91h508q10 -37 10 -92t-10 -90h-508q-10 35 -10 91z" />
<glyph unicode="&#x2012;" horiz-adv-x="716" d="M94 546q0 56 10 91h508q10 -37 10 -92t-10 -90h-508q-10 35 -10 91z" />
<glyph unicode="&#x2013;" horiz-adv-x="1087" d="M125 541q0 49 8 88h821q8 -39 8 -88t-8 -84h-821q-8 35 -8 84z" />
<glyph unicode="&#x2014;" horiz-adv-x="1636" d="M154 541q0 49 8 88h1311q10 -37 10 -88t-10 -84h-1311q-8 35 -8 84z" />
<glyph unicode="&#x2018;" horiz-adv-x="466" d="M86 1196q0 125 68.5 222.5t203.5 146.5q55 -29 56 -86v-19q-137 -63 -144 -174q72 -4 89.5 -30.5t17.5 -94.5q0 -47 -9.5 -72.5t-27.5 -38t-46 -14.5t-65 -2q-83 0 -118 27q-25 55 -25 135z" />
<glyph unicode="&#x2019;" horiz-adv-x="466" d="M53 1135q137 68 144 174q-43 6 -65.5 14t-30 22.5t-9.5 36t-2 50.5q0 49 9.5 79.5t30 36.5t47 10.5t61.5 4.5q79 0 118 -27q23 -55 23 -158q0 -53 -17.5 -104t-51.5 -97.5t-84 -84t-117 -62.5q-27 12 -42.5 39t-13.5 66z" />
<glyph unicode="&#x201a;" horiz-adv-x="468" d="M59 -193q59 27 101.5 73t44.5 102q-43 6 -64.5 14t-29 22.5t-10.5 36t-3 51.5q0 45 9.5 74t29 37t46 13.5t61.5 5.5q80 0 121 -29q23 -49 22 -156q0 -53 -17.5 -105t-51 -98.5t-84 -83t-117.5 -61.5q-27 12 -42.5 40t-15.5 64z" />
<glyph unicode="&#x201c;" horiz-adv-x="864" d="M84 1196q0 125 68.5 222.5t203.5 146.5q55 -29 56 -86v-19q-137 -63 -144 -174q72 -4 89.5 -30.5t17.5 -94.5q0 -47 -9.5 -72.5t-28 -38t-46 -14.5t-64.5 -2q-83 0 -118 27q-25 55 -25 135zM481 1196q0 125 68.5 222.5t204.5 146.5q55 -29 55 -86v-19q-137 -63 -143 -174 q72 -4 89 -30.5t17 -94.5q0 -47 -9 -72.5t-27.5 -38t-46 -14.5t-64.5 -2q-84 0 -119 27q-25 55 -25 135z" />
<glyph unicode="&#x201d;" horiz-adv-x="864" d="M57 1135q137 68 144 174q-43 6 -65.5 14t-30 22.5t-9.5 36t-2 50.5q0 49 9.5 78.5t30 36.5t47 11.5t61.5 4.5q79 0 118 -27q23 -55 23 -158q0 -53 -17.5 -104t-51 -97.5t-84 -84t-117.5 -62.5q-27 12 -42.5 37t-13.5 68zM455 1135q137 68 143 174q-43 6 -65.5 14 t-29.5 22.5t-9 36t-2 50.5q0 49 9 78.5t29.5 36.5t47 11.5t61.5 4.5q80 0 119 -27q23 -55 22 -158q0 -53 -17.5 -104t-51 -97.5t-83.5 -84t-118 -62.5q-27 12 -42 37t-13 68z" />
<glyph unicode="&#x201e;" horiz-adv-x="866" d="M59 -193q59 27 101.5 73t44.5 102q-43 6 -64.5 14t-29 22.5t-10.5 36t-3 51.5q0 45 9.5 74t29 37t46 13.5t61.5 5.5q80 0 121 -29q23 -49 22 -156q0 -53 -17.5 -105t-51 -98.5t-84 -83t-117.5 -61.5q-27 12 -42.5 40t-15.5 64zM457 -193q59 27 101 73t44 102 q-43 6 -64.5 14t-28.5 22.5t-10 36t-3 51.5q0 45 9 74t28.5 37t46 13.5t61.5 5.5q80 0 121 -29q23 -49 22 -156q0 -53 -17 -105t-51 -98.5t-84 -83t-118 -61.5q-27 12 -42 39t-15 65z" />
<glyph unicode="&#x2022;" horiz-adv-x="915" d="M225 557q0 115 31 174q80 49 207 49q129 0 203 -49q31 -59 30 -174q0 -115 -30 -176q-66 -47 -199 -47t-211 47q-31 61 -31 176z" />
<glyph unicode="&#x202f;" horiz-adv-x="369" />
<glyph unicode="&#x2039;" horiz-adv-x="679" d="M68 522.5q0 38.5 12 67.5l395 377q37 -10 72 -43t47 -68l-285 -330l295 -340q-12 -35 -48 -67.5t-73 -42.5l-403 379q-12 29 -12 67.5z" />
<glyph unicode="&#x203a;" horiz-adv-x="679" d="M74 856q12 33 49 66.5t72 44.5l405 -379q27 -68 0 -133l-397 -379q-35 10 -70 43.5t-47 68.5l283 330z" />
<glyph unicode="&#x205f;" horiz-adv-x="461" />
<glyph unicode="&#x20ac;" horiz-adv-x="1159" d="M43 505q0 36 8 75h148q-2 27 -2 81t2 80h-148q-8 35 -8 71t8 75h162q74 467 465 467q236 0 436 -166q-10 -37 -36.5 -75t-61.5 -58q-156 119 -309 119q-225 0 -279 -287h422q8 -39 8 -75t-8 -71h-438v-79q0 -55 2 -82h436q8 -39 8 -75t-8 -71h-420q53 -281 277 -280 q154 0 309 118q76 -47 98 -133q-199 -166 -436 -166q-389 0 -465 461h-162q-8 35 -8 71z" />
<glyph unicode="&#x25fc;" horiz-adv-x="1024" d="M0 0v1024h1024v-1024h-1024z" />
</font>
</defs>
</svg>
