<?xml version="1.0" standalone="no"?>
<!DOCTYPE svg PUBLIC "-//W3C//DTD SVG 1.1//EN" "http://www.w3.org/Graphics/SVG/1.1/DTD/svg11.dtd" >
<svg xmlns="http://www.w3.org/2000/svg" xmlns:xlink="http://www.w3.org/1999/xlink" version="1.1">
<metadata></metadata>
<defs>
<font id="vigaregular" horiz-adv-x="1112" >
<font-face units-per-em="2048" ascent="1638" descent="-410" />
<missing-glyph horiz-adv-x="475" />
<glyph horiz-adv-x="0" />
<glyph unicode="&#xd;" horiz-adv-x="681" />
<glyph unicode=" "  horiz-adv-x="475" />
<glyph unicode="&#x09;" horiz-adv-x="475" />
<glyph unicode="&#xa0;" horiz-adv-x="475" />
<glyph unicode="!" horiz-adv-x="710" d="M229 141.5q0 102.5 33 134t135.5 31.5t134 -31.5t31.5 -134t-31.5 -135.5t-134 -33t-135.5 33t-33 135.5zM229 1458h330l-61 -885q-8 -57 -40 -88.5t-71 -31.5t-68.5 32.5t-29.5 87.5z" />
<glyph unicode="&#x22;" horiz-adv-x="950" d="M139 1458h252l-20 -432h-211zM559 1458h252l-20 -432h-211z" />
<glyph unicode="#" horiz-adv-x="1415" d="M127 367v247h172l16 267h-139v247h156l20 342h285l-21 -342h256l21 342h285l-21 -342h141v-247h-157l-17 -267h125v-247h-139l-23 -367h-284l22 367h-256l-22 -367h-285l23 367h-158zM584 614h256l16 267h-256z" />
<glyph unicode="$" horiz-adv-x="1013" d="M45 463l258 12q0 -123 44 -178t136 -55t154.5 49t62.5 131q0 147 -139 174l-190 25q-143 27 -226.5 127t-83.5 274t88.5 288.5t239.5 147.5v152h207v-148q166 -27 263 -136t97 -269l-256 -13q-16 102 -65 140.5t-126 38.5t-125 -55.5t-48 -126t41 -112.5t100 -52l133 -25 q160 -27 266.5 -132.5t106.5 -281.5t-115.5 -290.5t-271.5 -147.5v-223h-207v221q-150 29 -247 143.5t-97 321.5z" />
<glyph unicode="%" horiz-adv-x="1736" d="M150 936v285q0 238 296 237h873l-690 -1458h-209l614 1298h-301q10 -36 10 -77v-285q0 -240 -296.5 -240t-296.5 240zM342 965q0 -55 25.5 -76t79 -21t79 21t25.5 76v227q0 55 -25.5 75.5t-79 20.5t-79 -20.5t-25.5 -75.5v-227zM1040 227v285q0 240 297 240t297 -240 v-285q0 -240 -297 -239.5t-297 239.5zM1233 256q0 -55 25.5 -75.5t79 -20.5t79 20.5t25.5 75.5v227q0 55 -25.5 76t-79 21t-79 -20.5t-25.5 -76.5v-227z" />
<glyph unicode="&#x26;" horiz-adv-x="1476" d="M205 401q0 111 35.5 199t136.5 166q-117 135 -117 333.5t120 294t352.5 95.5t351 -112.5t118.5 -350.5h-268q0 129 -42 173t-152.5 44t-157.5 -50t-47 -91q0 -121 51 -213q84 37 106 45l49 -227q-117 -49 -183 -114t-66 -166t56 -147.5t196.5 -46.5t189.5 81t53 298h-98 v217h551v-217h-189v-101.5t-18.5 -178t-57 -172t-106.5 -107.5t-143.5 -52t-186.5 -13q-266 0 -400 109.5t-134 303.5z" />
<glyph unicode="'" horiz-adv-x="530" d="M139 1458h252l-20 -432h-211z" />
<glyph unicode="(" horiz-adv-x="688" d="M78 715.5q0 277.5 102.5 548t216.5 387.5l178 -178q-70 -88 -138 -308.5t-68 -443.5t66 -436t140 -299l-178 -179q-117 119 -218 375t-101 533.5z" />
<glyph unicode=")" horiz-adv-x="688" d="M78 -14q74 86 140.5 299t66.5 436t-69 443t-138 309l178 178q115 -117 217 -387.5t102 -548t-101 -533.5t-218 -375z" />
<glyph unicode="*" horiz-adv-x="1011" d="M109 1049l43 182l241 -51l-82 241l185 54l61 -250l174 172l135 -131l-225 -189l260 -133l-102 -156l-232 138l-26 -8l-111 -236l-176 74l143 252z" />
<glyph unicode="+" d="M102 442v250h330v328h250v-328h328v-250h-328v-327h-250v327h-330z" />
<glyph unicode="," horiz-adv-x="571" d="M139 291h293v-215q0 -145 -93 -259t-200 -155v629z" />
<glyph unicode="-" horiz-adv-x="872" d="M121 461v248h631v-248h-631z" />
<glyph unicode="." horiz-adv-x="604" d="M129 141.5q0 102.5 33 134t135 31.5t134 -31.5t32 -134t-32 -135.5t-134 -33t-135 33t-33 135.5z" />
<glyph unicode="/" horiz-adv-x="825" d="M0 -152l584 1762h250l-584 -1762h-250z" />
<glyph unicode="0" horiz-adv-x="1161" d="M82 690v78q0 315 49 465q31 90 86 139q117 98 363 98q287 0 392 -155.5t105 -544.5v-84q0 -152 -10 -254t-41 -192t-86 -142.5t-144 -81t-216 -28.5t-216.5 29.5t-144.5 81t-86 142.5t-41 193.5t-10 255.5zM356 623q2 -219 43 -300t182.5 -81t180.5 78t41 303v227 q-2 203 -45 285t-178.5 82t-178.5 -81t-45 -278v-235z" />
<glyph unicode="1" horiz-adv-x="897" d="M209 1262v198h242q135 0 175 -49t40 -194v-1217h-279v1196z" />
<glyph unicode="2" horiz-adv-x="1122" d="M88 160q0 72 51 139q18 23 62 70l219 243q94 94 149.5 171t82 116t40.5 68q35 70 35 119t-38 97t-137 48t-137 -57.5t-38 -161.5h-268q0 104 16 179t63 142q92 137 381 137q215 0 332 -88t117 -252q0 -100 -46 -207.5t-97.5 -173t-121 -145.5t-81.5 -96l-232 -268h564 v-240h-699q-90 0 -153.5 37t-63.5 123z" />
<glyph unicode="3" horiz-adv-x="1095" d="M117 1012q0 236 107.5 347t324.5 111q446 0 446 -380q0 -223 -135 -363q156 -88 156 -334q0 -190 -122 -297.5t-341 -107.5t-326.5 112.5t-107.5 300.5h260q0 -35 9 -68.5t48 -67.5t124 -34t137.5 54.5t52.5 122.5q0 72 -26 104.5l-38 47.5t-46 33.5t-46 26t-54.5 25 t-50.5 21.5l46 225l127 -60q78 98 77 256q0 41 -48 90.5t-149.5 49.5t-138 -45t-36.5 -170h-250z" />
<glyph unicode="4" horiz-adv-x="1208" d="M76 479q0 41 34.5 145.5t194.5 536.5h285l-223 -596h342v893h254v-893h163v-252h-163v-313h-254v313h-424q-104 0 -156.5 44t-52.5 122z" />
<glyph unicode="5" horiz-adv-x="1128" d="M74 401h260q0 -35 9 -68.5t48 -67.5t105 -34q109 0 159 60.5t50 142.5t-11.5 129t-48.5 96q-74 102 -330 103h-157v672h772v-228h-510v-229q315 0 433 -129t118 -377q0 -483 -467 -483q-215 0 -322.5 112.5t-107.5 300.5z" />
<glyph unicode="6" horiz-adv-x="1124" d="M84 455v313q0 315 51 465q29 90 86 139q115 98 361 98q446 1 446 -460l-252 2q-14 115 -53 160t-141 45q-143 0 -181.5 -86.5t-42.5 -337.5l232 100q242 0 346 -103.5t104 -349.5q0 -453 -477 -452q-236 0 -357.5 117.5t-121.5 349.5zM356 547q0 -168 47 -238.5 t166 -70.5q207 0 207 200q0 119 -34.5 178.5t-145.5 59.5z" />
<glyph unicode="7" horiz-adv-x="1132" d="M113 1204v256h927v-235l-538 -1225h-287l539 1204h-641z" />
<glyph unicode="8" horiz-adv-x="1146" d="M106 403q0 84 39 188.5t91 180.5q-109 104 -109 297q0 401 446 401q221 0 344 -98t123 -305t-145 -379q145 -98 145 -285q0 -231 -114.5 -323t-347 -92t-352.5 105t-120 310zM373 395q0 -69 52 -112t155.5 -43t148.5 38.5t45 120.5q0 57 -80 127t-248 140 q-74 -113 -73 -271zM399 1044q0 -68 66.5 -125t232.5 -135q88 111 88 252q0 86 -51 138.5t-155 52.5q-181 -1 -181 -183z" />
<glyph unicode="9" horiz-adv-x="1124" d="M84 1030q0 248 116.5 350.5t361.5 102.5t361.5 -99.5t116.5 -347.5v-583q0 -231 -119.5 -348t-341 -117t-329 112.5t-107.5 300.5h260q0 -35 9.5 -68.5t48.5 -67.5t104 -34q109 0 159 60.5t50 157.5v215l-223 -127q-467 0 -467 493zM362 1024q0 -113 44.5 -175.5 t156.5 -62.5l219 129q0 168 -47 239t-166 71q-207 0 -207 -201z" />
<glyph unicode=":" horiz-adv-x="653" d="M182 710.5q0 102.5 33 134.5t135.5 32t134 -32t31.5 -134.5t-31.5 -135t-134 -32.5t-135.5 32.5t-33 135zM186 141.5q0 102.5 33 134t135.5 31.5t134 -31.5t31.5 -134t-31.5 -135.5t-134 -33t-135.5 33t-33 135.5z" />
<glyph unicode=";" horiz-adv-x="632" d="M182 710.5q0 102.5 33 134.5t135.5 32t134 -32t31.5 -134.5t-31.5 -135t-134 -32.5t-135.5 32.5t-33 135zM209 291h293v-215q0 -145 -93.5 -259t-199.5 -155v629z" />
<glyph unicode="&#x3c;" horiz-adv-x="1038" d="M115 469v217l788 385v-266l-516 -230l516 -227v-266z" />
<glyph unicode="=" d="M102 238v249h908v-249h-908zM102 682v250h908v-250h-908z" />
<glyph unicode="&#x3e;" horiz-adv-x="1011" d="M115 82v266l516 227l-516 230v266l788 -385v-217z" />
<glyph unicode="?" horiz-adv-x="1071" d="M113 1061q0 207 104.5 308t347.5 101q432 1 432 -409q0 -80 -31.5 -135.5t-43 -72.5t-45 -61t-35.5 -47l-137 -141q-37 -47 -37 -104v-64h-267v82q0 137 78 213l127 117q94 84 115 147q10 33 10 68q0 102 -40 135t-133 33t-138 -35t-45 -136.5t63 -197.5l-207 -82 q-66 80 -92 140.5t-26 140.5zM375 141.5q0 102.5 32.5 134t135 31.5t134.5 -31.5t32 -134t-32 -135.5t-134.5 -33t-135 33t-32.5 135.5z" />
<glyph unicode="@" horiz-adv-x="1773" d="M57 586q0 500 222 696q111 100 256 144t344 44q428 0 632.5 -170.5t204.5 -586.5q0 -700 -321 -701q-94 0 -164 27t-101 67q-61 78 -61 156q0 33 4 78q-45 -141 -109.5 -198.5t-162.5 -57.5q-174 0 -273.5 123t-99.5 360q0 297 103.5 400.5t359.5 103.5h205l147 12v-661 q0 -154 28.5 -223.5t123.5 -69.5q201 0 200 582q0 344 -167.5 490.5t-534.5 146.5t-540 -176.5t-173 -563.5t191.5 -610t578.5 -223l-14 -121q-197 0 -350.5 51t-251.5 136t-162 208q-115 219 -115 537zM647 571.5q0 -159.5 50.5 -215t154.5 -55.5q66 0 125 96.5t59 225.5 v245h-145q-143 0 -193.5 -68.5t-50.5 -228z" />
<glyph unicode="A" horiz-adv-x="1306" d="M31 0l467 1335q31 70 68.5 96.5t93 26.5t89 -24.5t60.5 -98.5l467 -1335h-297l-82 252h-489l-80 -252h-297zM479 492h352l-172 577z" />
<glyph unicode="B" horiz-adv-x="1347" d="M170 375v1083h616q209 0 314.5 -104.5t105.5 -294.5q0 -111 -56 -188.5t-124 -110.5q201 -94 201 -340q0 -203 -109.5 -311.5t-306.5 -108.5h-197q-242 0 -343 84t-101 291zM455 403q0 -84 42 -116.5t138 -32.5h147q160 0 160 180q0 98 -35 148.5t-125 50.5h-327v-230z M455 889h309q158 0 158 157.5t-158 157.5h-309v-315z" />
<glyph unicode="C" horiz-adv-x="1243" d="M80 645v123q0 518 287 649q113 53 272 53q233 0 379.5 -128t146.5 -369h-266q-23 121 -80 182.5t-180 61.5q-143 0 -213 -91q-49 -63 -57 -217q-4 -49 -4 -133v-127q0 -236 65 -321q68 -86 210 -86t196.5 78.5t70.5 244.5h264q0 -279 -139 -428t-393 -149 q-559 0 -559 657z" />
<glyph unicode="D" horiz-adv-x="1349" d="M170 383v1075h567q246 0 385 -139q113 -113 133 -275q15 -114 15 -309l2 -157q-8 -150 -37 -252.5t-113 -186.5q-139 -139 -405 -139q-313 0 -430 83t-117 300zM455 397q0 -82 55 -112.5t197.5 -30.5t216.5 90q39 47 50 130t11 259t-11 255t-50 126q-74 90 -213 90h-256 v-807z" />
<glyph unicode="E" horiz-adv-x="1239" d="M170 385v1073h960v-254h-675v-342h473l-21 -254h-452v-202q0 -86 38.5 -119t141.5 -33h495v-254h-516q-246 0 -345 85t-99 300z" />
<glyph unicode="F" horiz-adv-x="1208" d="M170 0v1161q0 162 70.5 229.5t242.5 67.5h647v-254h-514q-90 0 -125.5 -34.5t-35.5 -120.5v-203h534l-20 -254h-514v-592h-285z" />
<glyph unicode="G" horiz-adv-x="1304" d="M80 686v180q0 285 149.5 444.5t413.5 159.5t424 -159q113 -113 113 -338h-267q0 244 -260 244q-78 0 -132 -30t-80.5 -69t-41 -114.5t-16.5 -127t-2 -137.5t1 -115.5t6 -96t16.5 -95.5t33 -74t54.5 -63q84 -53 190 -53q178 0 252 151v99h-176v237h420v-440 q-63 -150 -200.5 -225.5t-311.5 -75.5q-309 0 -447.5 173t-138.5 525z" />
<glyph unicode="H" horiz-adv-x="1402" d="M150 0v1458h284v-616h535v616h284v-1458h-284v590h-535v-590h-284z" />
<glyph unicode="I" horiz-adv-x="624" d="M170 0v1458h285v-1458h-285z" />
<glyph unicode="J" horiz-adv-x="1046" d="M14 150l160 174q35 -35 105.5 -58.5t161.5 -23.5t140.5 44t49.5 165v1007h284v-938q0 -293 -120.5 -412.5t-350.5 -119.5q-147 0 -246.5 39t-183.5 123z" />
<glyph unicode="K" horiz-adv-x="1361" d="M170 0v1458h285v-815l551 815h286l-465 -686l502 -772h-332l-344 551l-198 -266v-285h-285z" />
<glyph unicode="L" horiz-adv-x="1126" d="M170 406v1052h285v-1052q0 -86 38.5 -119t141.5 -33h434v-254h-434q-246 0 -355.5 95t-109.5 311z" />
<glyph unicode="M" horiz-adv-x="1660" d="M150 0v1458h280l412 -842l409 842h281v-1458h-285v870l-262 -553q-57 -111 -141 -111h-1q-85 0 -143 118l-266 546v-870h-284z" />
<glyph unicode="N" horiz-adv-x="1431" d="M150 0v1458h274l598 -954v954h285v-1311q0 -68 -41 -115.5t-97 -47.5q-141 0 -231 163l-504 789v-936h-284z" />
<glyph unicode="O" horiz-adv-x="1318" d="M80 692v107q0 340 138 505.5t438 165.5t441.5 -167.5t141.5 -505.5v-111q0 -367 -138 -532.5t-443.5 -165.5t-441.5 165.5t-136 538.5zM365 692q0 -264 73 -356q29 -39 85.5 -66.5t135 -27.5t134 26.5t86 65.5t47.5 102q28 100 28 256v76q0 197 -49 313q-57 135 -246 136 q-190 0 -247 -136q-47 -111 -47 -313v-76z" />
<glyph unicode="P" horiz-adv-x="1286" d="M170 0v1458h565q229 0 355.5 -126t126.5 -369.5t-126 -369.5t-356 -126h-280v-467h-285zM455 723h266q102 0 156.5 55.5t54.5 184.5q0 241 -209 241h-2h-266v-481z" />
<glyph unicode="Q" horiz-adv-x="1316" d="M80 690v78q0 211 24.5 330t109.5 203.5t201.5 126.5t243.5 42t243 -42t203 -129t110.5 -199.5t23.5 -329.5v-84q0 -348 -174 -481q113 6 209 35v-252h-615q-127 0 -243.5 42t-201.5 127t-109.5 203.5t-24.5 329.5zM365 692q2 -217 32 -297q57 -153 259 -153h3 q178 0 238 102q39 74 47 143q10 88 10 211v99q0 256 -69 336q-70 84 -225.5 84t-229.5 -87q-53 -63 -61 -221q-4 -51 -4 -141v-76z" />
<glyph unicode="R" horiz-adv-x="1339" d="M170 0v1145q0 164 76 238.5t254 74.5h241q217 0 345 -132t128 -335q0 -147 -76.5 -254.5t-189.5 -148.5l326 -588h-330l-285 541h-204v-541h-285zM455 778h268q90 0 148.5 62.5t58.5 156t-56.5 150.5t-150.5 57h-141q-127 0 -127 -129v-297z" />
<glyph unicode="S" horiz-adv-x="1210" d="M57 463l258 12q0 -111 94.5 -172t208.5 -61q256 0 256 180q0 147 -174 174l-237 25q-178 27 -282.5 127t-104.5 288.5t149.5 311t377.5 122.5t367.5 -115.5t139.5 -297.5l-254 -13q-35 178 -240 179q-125 0 -195.5 -53.5t-70.5 -126t51.5 -114.5t126.5 -52l234 -25 q391 -53 391 -422q0 -207 -151.5 -324.5t-387.5 -117.5q-186 0 -360 102q-86 53 -141.5 150.5t-55.5 222.5z" />
<glyph unicode="T" horiz-adv-x="1169" d="M53 1204v254h1065v-254h-391v-1204h-285v1204h-389z" />
<glyph unicode="U" horiz-adv-x="1368" d="M127 500v958h285v-948q0 -135 74.5 -201.5t197.5 -66.5t198.5 66.5t75.5 201.5v948h283v-958q0 -238 -160.5 -375t-396 -137t-396.5 137t-161 375z" />
<glyph unicode="V" horiz-adv-x="1189" d="M6 1458h295l293 -950l293 950h297l-459 -1376q-37 -94 -131 -94q-98 0 -135 94z" />
<glyph unicode="W" horiz-adv-x="1816" d="M12 1458h297l226 -919l223 759q37 170 155 170q59 0 90 -44t56 -126l221 -759l227 919h297l-391 -1458h-237l-269 885l-268 -885h-238z" />
<glyph unicode="X" horiz-adv-x="1310" d="M10 0l490 748l-459 710h350l273 -471l276 471h348l-459 -710l492 -748h-352l-305 508l-302 -508h-352z" />
<glyph unicode="Y" horiz-adv-x="1171" d="M6 1458h309l273 -588l268 588h309l-438 -860v-598h-283v598z" />
<glyph unicode="Z" horiz-adv-x="1122" d="M68 192.5q0 86.5 63 180.5l574 831h-596v254h931v-225l-665 -979h665v-254h-741q-113 0 -172 53t-59 139.5z" />
<glyph unicode="[" horiz-adv-x="774" d="M164 -152v1762h526v-240h-260v-1282h260v-240h-526z" />
<glyph unicode="\" horiz-adv-x="825" d="M0 1583h250l575 -1735h-250z" />
<glyph unicode="]" horiz-adv-x="774" d="M86 86h260v1286h-260v238h526v-1762h-526v238z" />
<glyph unicode="^" horiz-adv-x="1232" d="M129 797l365 676h245l365 -676h-279l-184 387l-51 -2l-182 -385h-279z" />
<glyph unicode="_" horiz-adv-x="1130" d="M0 -186h1130v-179h-1130v179z" />
<glyph unicode="`" horiz-adv-x="1024" d="M209 1602h280l78 -218q8 -25 8 -45q0 -53 -57 -53q-88 0 -158 98z" />
<glyph unicode="a" horiz-adv-x="1093" d="M18 543.5q0 105.5 2.5 156t10.5 117t23.5 111.5t44 93t69.5 77q92 63 240 63h280l266 17v-1178h-178l-82 141l-284 -153q-238 0 -320 172q-41 84 -56.5 181t-15.5 202.5zM285 579q0 -171 42 -241t158 -70l203 105v549h-203q-113 0 -156.5 -86t-43.5 -257z" />
<glyph unicode="b" horiz-adv-x="1146" d="M106 305v1235h267v-516l317 147q182 0 268 -98q76 -88 95 -285q6 -82 6 -202q0 -588 -410 -588l-231 2q-154 0 -233 90t-79 215zM373 322q-1 -83 67 -95h131q221 0 222 359q0 182 -34 253.5t-147 71.5l-239 -129v-460z" />
<glyph unicode="c" horiz-adv-x="1062" d="M63 578.5q0 349.5 121 476.5q53 57 145.5 94t205.5 37q221 0 335.5 -110.5t114.5 -307.5h-242q0 90 -45 134t-166.5 44t-161.5 -75.5t-40 -227.5v-106q0 -244 94 -299q43 -27 112.5 -27t113.5 13.5t63.5 46t26 64.5t8.5 93l241 2q-2 -16 -4 -59t-3 -58.5t-5 -48.5t-9 -48 t-14 -40q-37 -106 -200 -168q-104 -37 -218 -37t-206 37t-146 94q-121 127 -121 476.5z" />
<glyph unicode="d" horiz-adv-x="1148" d="M63 543.5q0 105.5 2.5 156t10.5 117t23.5 111.5t44 93t69.5 77q92 63 240 63h280v379h266v-1540h-178l-82 141l-284 -153q-238 0 -320 172q-41 84 -56.5 181t-15.5 202.5zM330 579q0 -171 42 -241t158 -70l203 105v549h-203q-113 0 -156.5 -86t-43.5 -257z" />
<glyph unicode="e" horiz-adv-x="1122" d="M80 627q0 289 125 423t381 134q444 0 444 -494q0 -53 -4 -168h-682q0 -160 50 -233.5t202 -73.5q98 0 145 62.5t47 119.5h240q0 -219 -117.5 -321.5t-311 -102.5t-300.5 56q-219 113 -219 598zM350 705h438q0 135 -51 196.5t-156.5 61.5t-168 -62.5t-62.5 -195.5z" />
<glyph unicode="f" horiz-adv-x="700" d="M51 922v202h111v113q0 125 80 215t231 90h172v-225h-125q-92 0 -92 -96v-97h217v-202h-217v-922h-266v922h-111z" />
<glyph unicode="g" horiz-adv-x="1136" d="M53 596q0 244 37 344q39 111 111 160q92 61 241 61h281l266 17v-1125q0 -195 -109.5 -298t-324.5 -103q-166 0 -291 65q-66 33 -104.5 98.5t-38.5 155.5l248 13q0 -57 41 -82t140 -25t135 49t36 142l10 176l-287 -154q-236 0 -317 160q-74 141 -74 346zM319 626.5 q0 -139.5 44.5 -197.5t156.5 -58l203 104v447h-203q-115 0 -158 -78t-43 -217.5z" />
<glyph unicode="h" horiz-adv-x="1165" d="M119 0v1540h266v-510l338 152q180 0 255 -102.5t75 -286.5v-793h-267v733q0 188 -147 189l-254 -101v-821h-266z" />
<glyph unicode="i" horiz-adv-x="563" d="M129 1462q0 94 29.5 124t126 30t125 -30t28.5 -125t-29.5 -124.5t-125 -29.5t-125 30.5t-29.5 124.5zM150 0v1126h266v-1126h-266z" />
<glyph unicode="j" horiz-adv-x="563" d="M-47 -123h102q94 0 95 96v1153h266v-1169q0 -125 -79 -215t-233 -90h-151v225zM129 1462q0 94 29.5 124t126 30t125 -30t28.5 -125t-29.5 -124.5t-125 -29.5t-125 30.5t-29.5 124.5z" />
<glyph unicode="k" horiz-adv-x="1144" d="M145 0v1540h267v-973l372 555h301l-383 -524l453 -598h-319l-308 414l-116 -166v-248h-267z" />
<glyph unicode="l" horiz-adv-x="542" d="M139 -2v1542h267v-1540z" />
<glyph unicode="m" horiz-adv-x="1794" d="M150 0v1169h198l62 -139l307 152q160 0 241 -156l381 156q160 0 239 -107.5t79 -290.5v-784h-266v727q0 109 -26 152t-89 43l-240 -101v-821h-266v727q0 195 -135 195l-219 -101v-821h-266z" />
<glyph unicode="n" horiz-adv-x="1173" d="M129 0v1169h199l61 -139l328 152q137 0 238.5 -101.5t101.5 -296.5v-784h-266v748q0 100 -41 137t-115 37l-240 -101v-821h-266z" />
<glyph unicode="o" d="M63 590q0 270 97 424q106 172 387.5 172t391.5 -150.5t110 -445.5q0 -379 -144 -508q-121 -111 -350 -111q-293 0 -395 172q-96 158 -97 447zM330 537q0 -326 225 -326q145 0 190 108q37 86 37 209v107q0 152 -44 231.5t-183 79.5q-225 0 -225 -303v-106z" />
<glyph unicode="p" horiz-adv-x="1146" d="M150 -348v1509h524q238 0 323.5 -134.5t85.5 -410.5q0 -457 -235 -583q-96 -51 -236 -51l-196 127v-457h-266zM416 379l180 -117q119 0 170 74.5t51 238.5q0 346 -221 347h-180v-543z" />
<glyph unicode="q" horiz-adv-x="1148" d="M61 543.5q0 105.5 2.5 156t10.5 117t23.5 111.5t44 93t67.5 77q94 63 242 63h280l266 17v-1524h-262l2 487l-284 -153q-238 0 -320 172q-41 84 -56.5 181t-15.5 202.5zM328 579q0 -171 42 -241t158 -70l203 105v549h-203q-113 0 -156.5 -86t-43.5 -257z" />
<glyph unicode="r" horiz-adv-x="798" d="M109 0v1169h198l62 -102l282 117q20 2 55 1.5t64 -20.5l-74 -262q-31 12 -69 12q-102 0 -252 -88v-827h-266z" />
<glyph unicode="s" horiz-adv-x="1026" d="M68 332v24h241q0 -94 49.5 -128.5t169.5 -34.5q164 0 164 118q0 98 -57 131q-27 16 -68 25l-207 35q-270 43 -270 338q0 164 120 255t304 91q420 0 420 -363v-26h-232q-4 96 -51 131t-132 35t-128 -34t-43 -75q0 -117 94 -133l248 -45q262 -49 262 -352v-31 q-12 -154 -129.5 -231.5t-294.5 -77.5q-260 0 -364 94q-96 86 -96 254z" />
<glyph unicode="t" horiz-adv-x="720" d="M61 920v202h113v230h266v-230h189v-202h-189v-598q0 -96 92 -97h117v-225h-166q-152 0 -230.5 90t-78.5 215v615h-113z" />
<glyph unicode="u" horiz-adv-x="1173" d="M96 385v784h266v-727q0 -194 154 -194h2l240 129v792h266v-1169h-199l-61 139l-328 -151q-137 0 -238.5 101t-101.5 296z" />
<glyph unicode="v" horiz-adv-x="1009" d="M8 1169h281l217 -761l215 761h280l-391 -1169h-209z" />
<glyph unicode="w" horiz-adv-x="1554" d="M8 1169h283l172 -761l178 626q31 135 139 135q51 0 82 -32.5t51 -102.5l181 -626l172 761h280l-325 -1169h-220l-223 711l-223 -711h-219z" />
<glyph unicode="x" horiz-adv-x="1079" d="M25 0l378 596l-364 573h299l205 -338l198 338h299l-364 -573l368 -596h-299l-206 358l-195 -358h-319z" />
<glyph unicode="y" horiz-adv-x="1011" d="M8 1169h281l209 -813l225 813h281l-445 -1300q-31 -88 -80 -137q-82 -82 -229 -82h-125v239h82q57 0 84.5 19.5t48.5 77.5l20 57z" />
<glyph unicode="z" horiz-adv-x="978" d="M35 168q0 80 67 168l488 604h-488v229h807v-202l-581 -738h561v-229h-637q-104 0 -160.5 44t-56.5 124z" />
<glyph unicode="{" horiz-adv-x="935" d="M186 728q0 48 22.5 84t71 36t77 49t28.5 113l-61 297q0 141 80.5 222t234.5 81h209v-240q-162 0 -210 -31.5t-48 -128.5l61 -235q0 -98 -45 -161.5t-96 -84.5q51 -20 96 -83.5t45 -162.5l-61 -235q0 -61 16 -92q33 -68 242 -68v-240h-209q-154 0 -234.5 81t-80.5 223 l61 297q0 61 -26.5 109t-77 50t-73 37t-22.5 83z" />
<glyph unicode="|" horiz-adv-x="716" d="M225 -152v1762h267v-1762h-267z" />
<glyph unicode="}" horiz-adv-x="935" d="M150 88q209 0 243 68q14 31 15 92l-62 235q0 98 45 162t96 84q-51 20 -96 84t-45 162l62 235q0 96 -48.5 128t-209.5 32v240h208q154 0 235 -81t81 -222l-62 -297q0 -63 29 -112.5t77 -49.5t70.5 -36t22.5 -84t-22.5 -83t-72.5 -37t-77 -50t-27 -109l62 -297 q0 -141 -81 -222.5t-235 -81.5h-208v240z" />
<glyph unicode="~" horiz-adv-x="1241" d="M76 600q98 98 170.5 137t173 39t213 -59.5t194.5 -59.5t168 86l170 -168q-96 -96 -170.5 -136t-175 -40t-213 59.5t-194.5 59.5t-168 -86z" />
<glyph unicode="&#xa1;" horiz-adv-x="710" d="M205 968.5q0 102.5 32.5 134.5t135 32t134.5 -32t32 -134.5t-32 -135t-134.5 -32.5t-135 32.5t-32.5 135zM211 -348l59 885q0 55 30 87.5t68 32.5t70.5 -31.5t40.5 -88.5l62 -885h-330z" />
<glyph unicode="&#xa2;" horiz-adv-x="1021" d="M63.5 600.5q-0.5 110.5 14 198.5t53.5 170q80 166 315 211v186h209v-190q162 -29 246 -134.5t84 -273.5h-242q0 90 -45 134t-163 44q-104 0 -158 -53q-39 -39 -45 -150q-2 -35 -2 -100v-106q0 -205 45 -263q51 -63 160 -63q143 0 178 59q20 33 26 65t9 93l241 2 q-14 -168 -37.5 -239.5t-58.5 -102.5q-78 -72 -238 -104v-209h-209v202q-188 33 -276 150q-80 104 -98 285q-8 78 -8.5 188.5z" />
<glyph unicode="&#xa3;" horiz-adv-x="1185" d="M82 608v205h125v154q0 293 111.5 392t402.5 99q119 0 206 -34.5t167 -114.5l-187 -187q-82 82 -199.5 82t-168 -59.5t-50.5 -190.5v-141h232v-205h-232v-254q0 -63 25 -81.5t102 -18.5h457v-254h-584q-170 0 -226 64.5t-56 242.5v301h-125z" />
<glyph unicode="&#xa4;" horiz-adv-x="1370" d="M119 197l151 149q-68 115 -67.5 240t67.5 239l-151 150l176 176l151 -150q111 66 239 66t239 -66l151 150l174 -176l-149 -150q66 -111 65.5 -239.5t-65.5 -239.5l149 -149l-174 -177l-151 150q-111 -66 -239 -66t-239 66l-151 -150zM444 585.5q0 -100.5 70 -170 t170 -69.5t171 69.5t71 170t-71 170t-171 69.5t-170 -69.5t-70 -170z" />
<glyph unicode="&#xa5;" horiz-adv-x="1058" d="M41 1458h270l221 -569l218 569h272l-322 -729h113v-194h-168v-144h164v-194h-164v-199h-229v199h-158v194h158v144h-154v194h98z" />
<glyph unicode="&#xa6;" horiz-adv-x="722" d="M225 -152v717h267v-717h-267zM225 893v717h267v-717h-267z" />
<glyph unicode="&#xa7;" horiz-adv-x="1087" d="M-10 352h246q0 -102 81.5 -165.5t193.5 -63.5t181 57q-133 33 -223 96q-207 147 -306.5 336t-99.5 387q0 260 143.5 392.5t391.5 132.5q119 0 203 -35t131 -75t85 -110.5t52 -162.5l-244 -19q0 80 -68.5 117t-176 37t-170.5 -57q258 -100 391 -213t200.5 -250.5 t67.5 -325.5q0 -250 -145.5 -404.5t-409.5 -154.5q-362 0 -473 235q-45 98 -51 246zM340 967q22 -264 278 -463q76 -61 175 -86v22q0 231 -154 365q-117 100 -299 162z" />
<glyph unicode="&#xa8;" horiz-adv-x="1024" d="M143 1421q0 80 36 109t101.5 29t101.5 -29t36 -109t-36 -108.5t-101.5 -28.5t-101.5 28.5t-36 108.5zM606 1421q0 80 36 109t101.5 29t101.5 -29t36 -109t-36 -108.5t-101.5 -28.5t-101.5 28.5t-36 108.5z" />
<glyph unicode="&#xa9;" horiz-adv-x="1728" d="M123 729q0 385 178 563t563 178t563.5 -178t178.5 -563t-178.5 -563t-563.5 -178t-563 178t-178 563zM225 729q0 -356 144.5 -507.5t496 -151.5t505 153.5t153.5 498.5t-161 506t-505 161t-488.5 -152t-144.5 -508zM549 682v68q0 190 73.5 298.5t256.5 108.5 q137 0 223 -81t86 -232h-184q-23 133 -125 133q-92 0 -113 -72q-18 -57 -18 -151v-70q0 -152 59 -186q27 -16 83 -16.5t83 42.5t33 133h184q0 -172 -82 -264t-229 -92q-330 0 -330 381z" />
<glyph unicode="&#xaa;" horiz-adv-x="929" d="M47 857q0 116 71.5 198t213.5 82h186q0 82 -27.5 116.5t-93.5 34.5q-141 0 -141 -88h-197q0 283 338 283q168 0 257 -82t89 -219v-574h-172l-41 86l-196 -92q-125 0 -206 69.5t-81 185.5zM260 891q0 -37 22.5 -65.5t61.5 -30.5l174 88v96h-158q-49 0 -74.5 -25.5 t-25.5 -62.5z" />
<glyph unicode="&#xab;" horiz-adv-x="1286" d="M96 568.5q0 62.5 90 152.5l394 350v-317l-234 -191l234 -190v-318l-398 355q-86 96 -86 158.5zM672 568.5q0 62.5 90 152.5l393 350v-317l-233 -191l233 -190v-318l-397 355q-86 96 -86 158.5z" />
<glyph unicode="&#xac;" d="M115 502v235h903v-553h-248v318h-655z" />
<glyph unicode="&#xad;" horiz-adv-x="872" d="M121 461v248h631v-248h-631z" />
<glyph unicode="&#xae;" horiz-adv-x="1728" d="M123 729q0 385 178 563t563 178t563.5 -178t178.5 -563t-178.5 -563t-563.5 -178t-563 178t-178 563zM225 729q0 -356 144.5 -507.5t496 -151.5t505 153.5t153.5 498.5t-161 506t-505 161t-488.5 -152t-144.5 -508zM582 328v626q0 98 45 142.5t151 44.5h127 q125 0 198 -76t73 -174q0 -182 -136 -244q109 -190 181 -319h-220l-151 286h-76v-286h-192zM774 778h121q41 0 65.5 28t24.5 68.5t-24.5 66.5t-65.5 26h-74q-47 0 -47 -52v-137z" />
<glyph unicode="&#xaf;" horiz-adv-x="1024" d="M188 1290v178h648v-178h-648z" />
<glyph unicode="&#xb0;" horiz-adv-x="978" d="M113 1110q0 211 91 295t285.5 84t285.5 -84t91 -295t-90 -294t-286.5 -83t-286.5 83t-90 294zM328 1110q0 -96 36.5 -130t125 -34t125 34t36.5 130t-38 130t-125 34t-123.5 -34t-36.5 -130z" />
<glyph unicode="&#xb1;" d="M102 0v250h908v-250h-908zM102 698v248h330v330h250v-330h328v-248h-328v-329h-250v329h-330z" />
<glyph unicode="&#xb2;" horiz-adv-x="733" d="M88 713q0 55 57 116l152 168q147 164 147 227.5t-77 63.5q-47 0 -63.5 -30.5t-16.5 -90.5h-187q0 139 55.5 216t201 77t215 -54t69.5 -137t-34 -155t-66.5 -114t-103 -118.5t-93.5 -103.5h291v-172h-406q-141 0 -141 107z" />
<glyph unicode="&#xb3;" horiz-adv-x="753" d="M109 1163q0 297 264 297q270 0 270 -233q0 -123 -65 -201q76 -63 75.5 -185t-75 -187.5t-206.5 -65.5t-196.5 73.5t-64.5 196.5h184q0 -96 74 -96q49 0 72.5 24.5t23.5 56t-19.5 57.5t-38 36t-57.5 27l-35 14l33 164l82 -37q29 53 29 123q0 16 -21.5 36.5t-68.5 20.5 t-64.5 -24.5t-17.5 -96.5h-178z" />
<glyph unicode="&#xb4;" horiz-adv-x="1024" d="M455 1339q0 20 8 45l78 218h280l-151 -218q-70 -98 -158 -98q-57 0 -57 53z" />
<glyph unicode="&#xb5;" horiz-adv-x="1136" d="M96 385v784h266v-737q2 -96 45.5 -140t110.5 -44l240 129v792h266v-1169h-199l-61 139l-328 -151q-39 0 -74 6v-74q0 -70 -57 -138.5t-123 -68.5h-84v613q-2 18 -2 59z" />
<glyph unicode="&#xb6;" horiz-adv-x="1368" d="M51 885q0 133 16.5 215t64.5 145.5t138 90t234 26.5h223v-1768h-266v838q-238 0 -324 104.5t-86 348.5zM870 -406v1768q168 0 217.5 -45t49.5 -168v-1325q0 -158 -45.5 -194t-221.5 -36z" />
<glyph unicode="&#xb7;" horiz-adv-x="604" d="M129 594q0 102 33 134t135 32t134 -32t32 -134t-32 -135t-134 -33t-135 33t-33 135z" />
<glyph unicode="&#xb8;" horiz-adv-x="1024" d="M348 -342l43 104q37 -6 72 -6q84 0 84 64q0 70 -119 69l61 154h132l-37 -92q98 -27 98 -114t-58.5 -137t-179.5 -50q-27 0 -96 8z" />
<glyph unicode="&#xb9;" horiz-adv-x="598" d="M129 1339v121h174q82 0 106.5 -29.5t24.5 -117.5v-735h-190v722z" />
<glyph unicode="&#xba;" horiz-adv-x="946" d="M113 1029q0 216 83 327.5t275.5 111.5t277.5 -108.5t85 -324.5t-83 -326.5t-275.5 -110.5t-277.5 107.5t-85 323.5zM328 1035q0 -128 25.5 -186t116.5 -58t119.5 55t28.5 183t-25.5 187.5t-116.5 59.5t-119.5 -56.5t-28.5 -184.5z" />
<glyph unicode="&#xbb;" horiz-adv-x="1286" d="M135 55v318l234 190l-234 191v317l397 -354q86 -96 86 -158.5t-90 -152.5zM711 55v318l233 190l-233 191v317l397 -354q86 -96 86 -158.5t-90 -152.5z" />
<glyph unicode="&#xbc;" horiz-adv-x="1712" d="M145 1339v121h174q82 0 107 -29.5t25 -117.5v-735h-191v722zM381 0l690 1458h209l-690 -1458h-209zM1006 299q0 63 131 420h206l-118 -348h151v522h189v-522h96v-189h-96v-182h-189v182h-229q-141 0 -141 117z" />
<glyph unicode="&#xbd;" horiz-adv-x="1765" d="M145 1339v121h174q82 0 107 -29.5t25 -117.5v-735h-191v722zM373 0l690 1458h207l-690 -1458h-207zM1112 109q0 55 57 116l152 168q147 164 147 227.5t-77 63.5q-47 0 -63.5 -30.5t-16.5 -90.5h-187q0 139 55.5 216t201 77t215 -54t69.5 -137t-34 -155t-66.5 -114 t-103 -118.5t-93.5 -103.5h291v-172h-406q-141 0 -141 107z" />
<glyph unicode="&#xbe;" horiz-adv-x="1771" d="M109 1163q0 297 264 297q270 0 270 -233q0 -123 -65 -201q76 -63 75.5 -185t-75 -187.5t-206.5 -65.5t-196.5 73.5t-64.5 196.5h184q0 -96 74 -96q49 0 72.5 24.5t23.5 56t-19.5 57.5t-38 36t-57.5 27l-35 14l33 164l82 -37q29 53 29 123q0 16 -21.5 36.5t-68.5 20.5 t-64.5 -24.5t-17.5 -96.5h-178zM446 0l691 1458h209l-691 -1458h-209zM1006 299q0 63 131 420h206l-118 -348h151v522h189v-522h96v-189h-96v-182h-189v182h-229q-141 0 -141 117z" />
<glyph unicode="&#xbf;" horiz-adv-x="1071" d="M78 6q0 80 31.5 135.5t43 72.5t45 61t35.5 47l138 141q37 47 37 104v64h266v-82q0 -137 -78 -213l-127 -115q-94 -86 -115 -149q-10 -33 -10 -68q0 -102 40 -135t133 -33t138 35t45 136.5t-63 197.5l207 82q66 -80 92.5 -140.5t26.5 -140.5q0 -207 -104.5 -308 t-348.5 -101q-432 -1 -432 409zM367 925.5q0 102.5 31.5 135.5t134 33t135 -33t32.5 -135.5t-32.5 -134t-135 -31.5t-134 31.5t-31.5 134z" />
<glyph unicode="&#xc0;" horiz-adv-x="1306" d="M31 0l467 1335q31 70 68.5 96.5t93 26.5t89 -24.5t60.5 -98.5l467 -1335h-297l-82 252h-489l-80 -252h-297zM346 1964h281l78 -217q8 -25 8 -45q0 -53 -58 -53q-87 0 -157 98zM479 492h352l-172 536z" />
<glyph unicode="&#xc1;" horiz-adv-x="1306" d="M31 0l467 1335q31 70 68.5 96.5t93 26.5t89 -24.5t60.5 -98.5l467 -1335h-297l-82 252h-489l-80 -252h-297zM479 492h352l-172 536zM592 1702q0 20 8 45l78 217h280l-151 -217q-70 -98 -158 -98q-57 0 -57 53z" />
<glyph unicode="&#xc2;" horiz-adv-x="1306" d="M31 0l467 1335q31 70 68.5 96.5t93 26.5t89 -24.5t60.5 -98.5l467 -1335h-297l-82 252h-489l-80 -252h-297zM340 1658.5q0 22.5 10 39.5l193 248h213l192 -248q10 -16 10 -38t-17 -41.5t-42 -19.5q-78 0 -158 99l-92 114l-92 -114q-80 -98 -158 -99q-27 0 -43 18.5 t-16 41zM479 492h352l-172 536z" />
<glyph unicode="&#xc3;" horiz-adv-x="1306" d="M31 0l467 1335q31 70 68.5 96.5t93 26.5t89 -24.5t60.5 -98.5l467 -1335h-297l-82 252h-489l-80 -252h-297zM279 1763q68 68 119 94.5t120.5 26.5t142 -43t143.5 -43t120 47l94 -102q-121 -121 -232 -121q-76 0 -148.5 42t-137 42t-119.5 -49zM479 492h352l-172 536z" />
<glyph unicode="&#xc4;" horiz-adv-x="1306" d="M31 0l467 1335q31 70 68.5 96.5t93 26.5t89 -24.5t60.5 -98.5l467 -1335h-297l-82 252h-489l-80 -252h-297zM281 1784q0 80 35.5 108.5t101 28.5t101.5 -28.5t36 -108.5t-36 -108.5t-101.5 -28.5t-101 28.5t-35.5 108.5zM479 492h352l-172 536zM743 1784q0 80 36 108.5 t101.5 28.5t101.5 -28.5t36 -108.5t-36 -108.5t-101.5 -28.5t-101.5 28.5t-36 108.5z" />
<glyph unicode="&#xc5;" horiz-adv-x="1306" d="M31 0l467 1335q31 70 68.5 96.5t93 26.5t89 -24.5t60.5 -98.5l467 -1335h-297l-82 252h-489l-80 -252h-297zM381 1810.5q0 268.5 268.5 268.5t268.5 -268.5t-268.5 -268.5t-268.5 268.5zM479 492h352l-172 536zM530 1810.5q0 -73.5 31 -97t88.5 -23.5t88 23.5t30.5 97 t-29.5 96t-89 22.5t-89.5 -22.5t-30 -96z" />
<glyph unicode="&#xc6;" horiz-adv-x="2004" d="M39 0l899 1458h960v-254h-675v-342h473l-41 -254h-432v-202q0 -86 38.5 -119t141.5 -33h495v-254h-495q-197 0 -305.5 59.5t-143.5 192.5h-467l-151 -252h-297zM606 492h332v536z" />
<glyph unicode="&#xc7;" horiz-adv-x="1179" d="M80 645v123q0 518 287 649q113 53 272 53q233 0 379.5 -128t146.5 -369h-266q-23 121 -80 182.5t-180 61.5q-143 0 -213 -91q-49 -63 -57 -217q-4 -49 -4 -133v-127q0 -236 65 -321q68 -86 210 -86t196.5 78.5t70.5 244.5h264q0 -258 -119.5 -405.5t-340.5 -167.5 l-17 -41q98 -27 98.5 -114t-58 -137t-179.5 -50q-27 0 -96 8l43 104q37 -6 71 -6q84 0 84 64q0 70 -118 69l39 101q-498 35 -498 655z" />
<glyph unicode="&#xc8;" horiz-adv-x="1239" d="M170 406v1052h960v-254h-675v-342h473l-41 -254h-432v-202q0 -86 38.5 -119t141.5 -33h495v-254h-495q-246 0 -355.5 95t-109.5 311zM332 1964h280l78 -217q8 -25 8 -45q0 -53 -57 -53q-88 0 -158 98z" />
<glyph unicode="&#xc9;" horiz-adv-x="1239" d="M170 406v1052h960v-254h-675v-342h473l-41 -254h-432v-202q0 -86 38.5 -119t141.5 -33h495v-254h-495q-246 0 -355.5 95t-109.5 311zM575 1702q0 20 9 45l78 217h280l-151 -217q-70 -98 -158 -98q-57 0 -58 53z" />
<glyph unicode="&#xca;" horiz-adv-x="1239" d="M170 406v1052h960v-254h-675v-342h473l-41 -254h-432v-202q0 -86 38.5 -119t141.5 -33h495v-254h-495q-246 0 -355.5 95t-109.5 311zM326 1658.5q0 22.5 10 39.5l192 248h213l193 -248q10 -16 10 -38t-17.5 -41.5t-41.5 -19.5q-78 0 -158 99l-92 114l-92 -114 q-80 -98 -158 -99q-27 0 -43 18.5t-16 41z" />
<glyph unicode="&#xcb;" horiz-adv-x="1239" d="M170 406v1052h960v-254h-675v-342h473l-41 -254h-432v-202q0 -86 38.5 -119t141.5 -33h495v-254h-495q-246 0 -355.5 95t-109.5 311zM266 1784q0 80 36 108.5t101.5 28.5t101.5 -28.5t36 -108.5t-36 -108.5t-101.5 -28.5t-101.5 28.5t-36 108.5zM729 1784q0 80 36 108.5 t101.5 28.5t101.5 -28.5t36 -108.5t-36 -108.5t-101.5 -28.5t-101.5 28.5t-36 108.5z" />
<glyph unicode="&#xcc;" horiz-adv-x="624" d="M63 1964h281l78 -217q8 -25 8 -45q0 -53 -57 -53q-88 0 -158 98zM170 0v1458h285v-1458h-285z" />
<glyph unicode="&#xcd;" horiz-adv-x="624" d="M170 0v1458h285v-1458h-285zM207 1702q0 20 8 45l78 217h280l-151 -217q-70 -98 -158 -98q-57 0 -57 53z" />
<glyph unicode="&#xce;" horiz-adv-x="624" d="M0 1658.5q0 22.5 10 39.5l193 248h213l192 -248q10 -16 10 -38t-17 -41.5t-42 -19.5q-78 0 -158 99l-92 114l-92 -114q-80 -98 -158 -99q-27 0 -43 18.5t-16 41zM170 0v1458h285v-1458h-285z" />
<glyph unicode="&#xcf;" horiz-adv-x="624" d="M-55 1784q0 80 35.5 108.5t101 28.5t101.5 -28.5t36 -108.5t-36 -108.5t-101.5 -28.5t-101 28.5t-35.5 108.5zM170 0v1458h285v-1458h-285zM408 1784q0 80 35.5 108.5t101 28.5t101.5 -28.5t36 -108.5t-36 -108.5t-101.5 -28.5t-101 28.5t-35.5 108.5z" />
<glyph unicode="&#xd0;" horiz-adv-x="1396" d="M74 629v217h116v612h568q246 0 385 -139q113 -113 133 -275q14 -115 14 -309l2 -157q-8 -150 -36.5 -252.5t-112.5 -186.5q-139 -139 -385 -139q-313 0 -440.5 93t-127.5 310v226h-116zM475 397q0 -82 55.5 -112.5t197.5 -30.5t216 90q39 47 50.5 130t11.5 259t-11.5 255 t-50.5 126q-74 90 -213 90h-256v-358h266v-217h-266v-232z" />
<glyph unicode="&#xd1;" horiz-adv-x="1458" d="M150 0v1458h274l598 -954v954h285v-1311q0 -68 -41 -115.5t-97 -47.5q-141 0 -231 163l-504 789v-936h-284zM358 1763q68 68 119 94.5t121 26.5t142.5 -43t143.5 -43t120 47l94 -102q-121 -121 -232 -121q-76 0 -148.5 42t-137 42t-119.5 -49z" />
<glyph unicode="&#xd2;" horiz-adv-x="1318" d="M80 690v78q0 360 138 531t441 171q580 1 580 -673v-111q0 -367 -138 -532.5t-443.5 -165.5t-441.5 164.5t-136 537.5zM356 1964h281l78 -217q8 -25 8 -45q0 -53 -57 -53q-88 0 -158 98zM365 692q2 -217 32 -297q57 -154 262 -153q178 0 238 102q39 74 47 143 q10 88 10 211v99q0 256 -69 336q-70 84 -225.5 84t-229.5 -87q-53 -63 -61 -221q-4 -51 -4 -141v-76z" />
<glyph unicode="&#xd3;" horiz-adv-x="1318" d="M80 690v78q0 360 138 531t441 171q580 1 580 -673v-111q0 -367 -138 -532.5t-443.5 -165.5t-441.5 164.5t-136 537.5zM365 692q2 -217 32 -297q57 -154 262 -153q178 0 238 102q39 74 47 143q10 88 10 211v99q0 256 -69 336q-70 84 -225.5 84t-229.5 -87 q-53 -63 -61 -221q-4 -51 -4 -141v-76zM602 1702q0 20 8 45l78 217h281l-152 -217q-70 -98 -158 -98q-57 0 -57 53z" />
<glyph unicode="&#xd4;" horiz-adv-x="1318" d="M80 690v78q0 360 138 531t441 171q580 1 580 -673v-111q0 -367 -138 -532.5t-443.5 -165.5t-441.5 164.5t-136 537.5zM350 1658.5q0 22.5 10 39.5l193 248h213l192 -248q10 -16 10.5 -38t-17 -41.5t-42.5 -19.5q-78 0 -157 99l-93 114l-92 -114q-80 -98 -157 -99 q-27 0 -43.5 18.5t-16.5 41zM365 692q2 -217 32 -297q57 -154 262 -153q178 0 238 102q39 74 47 143q10 88 10 211v99q0 256 -69 336q-70 84 -225.5 84t-229.5 -87q-53 -63 -61 -221q-4 -51 -4 -141v-76z" />
<glyph unicode="&#xd5;" horiz-adv-x="1318" d="M80 690v78q0 360 138 531t441 171q580 1 580 -673v-111q0 -367 -138 -532.5t-443.5 -165.5t-441.5 164.5t-136 537.5zM289 1763q68 68 119 94.5t120.5 26.5t142 -43t143.5 -43t120 47l94 -102q-121 -121 -231 -121q-76 0 -149 42t-137.5 42t-119.5 -49zM365 692 q2 -217 32 -297q57 -154 262 -153q178 0 238 102q39 74 47 143q10 88 10 211v99q0 256 -69 336q-70 84 -225.5 84t-229.5 -87q-53 -63 -61 -221q-4 -51 -4 -141v-76z" />
<glyph unicode="&#xd6;" horiz-adv-x="1318" d="M80 690v78q0 360 138 531t441 171q580 1 580 -673v-111q0 -367 -138 -532.5t-443.5 -165.5t-441.5 164.5t-136 537.5zM291 1784q0 80 35.5 108.5t101.5 28.5t101.5 -28.5t35.5 -108.5t-35.5 -108.5t-101.5 -28.5t-101.5 28.5t-35.5 108.5zM365 692q2 -217 32 -297 q57 -154 262 -153q178 0 238 102q39 74 47 143q10 88 10 211v99q0 256 -69 336q-70 84 -225.5 84t-229.5 -87q-53 -63 -61 -221q-4 -51 -4 -141v-76zM754 1784q0 80 35.5 108.5t101 28.5t101.5 -28.5t36 -108.5t-36 -108.5t-101.5 -28.5t-101 28.5t-35.5 108.5z" />
<glyph unicode="&#xd7;" d="M100 297l289 289l-289 288l168 168l287 -288l289 288l168 -168l-289 -288l289 -289l-168 -168l-289 289l-287 -289z" />
<glyph unicode="&#xd8;" horiz-adv-x="1353" d="M80 692v107q0 340 138 505.5t441 165.5q121 0 226 -32l51 106h209l-92 -196q186 -162 186 -551v-111q0 -367 -138 -532.5t-442 -165.5q-135 0 -235 30l-51 -110h-209l94 201q-178 160 -178 583zM365 692q0 -195 34 -286l373 792q-47 18 -128 18.5t-142.5 -33.5 t-89.5 -102q-47 -110 -47 -313v-76zM539 260q49 -18 123.5 -18t130 26.5t86 65.5t47.5 102q28 100 28 256v76q0 190 -39 291z" />
<glyph unicode="&#xd9;" horiz-adv-x="1368" d="M127 500v958h285v-948q0 -135 74.5 -201.5t197.5 -66.5t198.5 66.5t75.5 201.5v948h283v-958q0 -238 -160.5 -375t-396 -137t-396.5 137t-161 375zM381 1964h281l77 -217q8 -25 9 -45q0 -53 -58 -53q-88 0 -158 98z" />
<glyph unicode="&#xda;" horiz-adv-x="1368" d="M127 500v958h285v-948q0 -135 74.5 -201.5t197.5 -66.5t198.5 66.5t75.5 201.5v948h283v-958q0 -238 -160.5 -375t-396 -137t-396.5 137t-161 375zM627 1702q0 20 8 45l78 217h280l-151 -217q-70 -98 -158 -98q-57 0 -57 53z" />
<glyph unicode="&#xdb;" horiz-adv-x="1368" d="M127 500v958h285v-948q0 -135 74.5 -201.5t197.5 -66.5t198.5 66.5t75.5 201.5v948h283v-958q0 -238 -160.5 -375t-396 -137t-396.5 137t-161 375zM375 1658.5q0 22.5 10 39.5l193 248h213l192 -248q10 -16 10 -38t-17.5 -41.5t-41.5 -19.5q-78 0 -158 99l-92 114 l-92 -114q-80 -98 -158 -99q-27 0 -43 18.5t-16 41z" />
<glyph unicode="&#xdc;" horiz-adv-x="1368" d="M127 500v958h285v-948q0 -135 74.5 -201.5t197.5 -66.5t198.5 66.5t75.5 201.5v948h283v-958q0 -238 -160.5 -375t-396 -137t-396.5 137t-161 375zM315 1784q0 80 36 108.5t101.5 28.5t101.5 -28.5t36 -108.5t-36 -108.5t-101.5 -28.5t-101.5 28.5t-36 108.5zM778 1784 q0 80 36 108.5t101.5 28.5t101.5 -28.5t36 -108.5t-36 -108.5t-101.5 -28.5t-101.5 28.5t-36 108.5z" />
<glyph unicode="&#xdd;" horiz-adv-x="1171" d="M6 1458h309l273 -588l268 588h309l-438 -860v-598h-283v598zM526 1702q0 20 9 45l77 217h281l-152 -217q-70 -98 -157 -98q-57 0 -58 53z" />
<glyph unicode="&#xde;" horiz-adv-x="1296" d="M170 0v1458h285v-268h239q254 0 368 -110t114 -343q0 -455 -482 -454h-239v-283h-285zM455 537h225q127 0 169 39.5t42 160.5t-42 160t-169 39h-225v-399z" />
<glyph unicode="&#xdf;" horiz-adv-x="1228" d="M150 0v1047q0 424 434 423q410 0 409 -378q0 -88 -36.5 -159t-88.5 -102q250 -129 250 -387q0 -465 -403 -464h-107v225h54q84 0 136 62.5t52 181t-74 186t-172 67.5v209q49 0 86 53.5t37 123t-38 110.5t-121 41t-117.5 -55.5t-34.5 -157.5v-1026h-266z" />
<glyph unicode="&#xe0;" horiz-adv-x="1093" d="M18 543.5q0 105.5 2.5 156t10.5 117t23.5 111.5t44 93t69.5 77q92 63 240 63h280l266 17v-1178h-178l-82 141l-284 -153q-238 0 -320 172q-41 84 -56.5 181t-15.5 202.5zM231 1602h281l78 -218q8 -25 8 -45q0 -53 -57 -53q-88 0 -158 98zM285 579q0 -171 42 -241t158 -70 l203 105v549h-203q-113 0 -156.5 -86t-43.5 -257z" />
<glyph unicode="&#xe1;" horiz-adv-x="1093" d="M18 543.5q0 105.5 2.5 156t10.5 117t23.5 111.5t44 93t69.5 77q92 63 240 63h280l266 17v-1178h-178l-82 141l-284 -153q-238 0 -320 172q-41 84 -56.5 181t-15.5 202.5zM285 579q0 -171 42 -241t158 -70l203 105v549h-203q-113 0 -156.5 -86t-43.5 -257zM457 1339 q0 20 8 45l78 218h280l-151 -218q-70 -98 -158 -98q-57 0 -57 53z" />
<glyph unicode="&#xe2;" horiz-adv-x="1093" d="M18 543.5q0 105.5 2.5 156t10.5 117t23.5 111.5t44 93t69.5 77q92 63 240 63h280l266 17v-1178h-178l-82 141l-284 -153q-238 0 -320 172q-41 84 -56.5 181t-15.5 202.5zM225 1316.5q0 22.5 11 39.5l192 248h213l193 -248q10 -16 10 -38t-17.5 -41.5t-42.5 -19.5 q-78 0 -157 99l-92 114l-93 -114q-80 -98 -157 -99q-27 0 -43.5 18.5t-16.5 41zM285 579q0 -171 42 -241t158 -70l203 105v549h-203q-113 0 -156.5 -86t-43.5 -257z" />
<glyph unicode="&#xe3;" horiz-adv-x="1093" d="M18 543.5q0 105.5 2.5 156t10.5 117t23.5 111.5t44 93t69.5 77q92 63 240 63h280l266 17v-1178h-178l-82 141l-284 -153q-238 0 -320 172q-41 84 -56.5 181t-15.5 202.5zM164 1401q68 68 119 94.5t120.5 26.5t142 -43t143.5 -43t120 47l94 -103q-121 -121 -231 -120 q-76 0 -148.5 41.5t-137 41.5t-120.5 -49zM285 579q0 -171 42 -241t158 -70l203 105v549h-203q-113 0 -156.5 -86t-43.5 -257z" />
<glyph unicode="&#xe4;" horiz-adv-x="1093" d="M18 543.5q0 105.5 2.5 156t10.5 117t23.5 111.5t44 93t69.5 77q92 63 240 63h280l266 17v-1178h-178l-82 141l-284 -153q-238 0 -320 172q-41 84 -56.5 181t-15.5 202.5zM166 1421q0 80 36 109t101.5 29t101 -29t35.5 -109t-35.5 -108.5t-101 -28.5t-101.5 28.5 t-36 108.5zM285 579q0 -171 42 -241t158 -70l203 105v549h-203q-113 0 -156.5 -86t-43.5 -257zM629 1421q0 80 35.5 109t101 29t101.5 -29t36 -109t-36 -108.5t-101.5 -28.5t-101 28.5t-35.5 108.5z" />
<glyph unicode="&#xe5;" horiz-adv-x="1093" d="M18 543.5q0 105.5 2.5 156t10.5 117t23.5 111.5t44 93t69.5 77q92 63 240 63h280l266 17v-1178h-178l-82 141l-284 -153q-238 0 -320 172q-41 84 -56.5 181t-15.5 202.5zM266 1464.5q0 268.5 268.5 268.5t268.5 -268.5t-268.5 -268.5t-268.5 268.5zM285 579 q0 -171 42 -241t158 -70l203 105v549h-203q-113 0 -156.5 -86t-43.5 -257zM416 1464.5q0 -73.5 30.5 -97.5t88 -24t88 24t30.5 97.5t-29.5 96t-89 22.5t-89 -22.5t-29.5 -96z" />
<glyph unicode="&#xe6;" horiz-adv-x="1748" d="M63 325.5q0 153.5 95.5 268.5t281.5 115h291q2 10 2 28v47q0 182 -198 183q-125 0 -177.5 -42t-52.5 -143h-221q0 197 113.5 300.5t337 103.5t346.5 -111q123 109 354 109q444 0 444 -494q0 -53 -4 -168h-676q0 -178 47.5 -252.5t198.5 -74.5q106 0 149.5 52t43.5 161 h239q0 -231 -114.5 -333t-311.5 -102q-172 0 -279.5 45t-162.5 152l-373 -180q-160 0 -266.5 91t-106.5 244.5zM311 346.5q0 -63.5 40 -101.5t116 -38l266 139v172h-252q-82 0 -126 -54t-44 -117.5zM999 705h439q0 162 -47.5 215t-159 53t-172 -55t-60.5 -213z" />
<glyph unicode="&#xe7;" horiz-adv-x="987" d="M63 578.5q0 349.5 121 476.5q53 57 145.5 94t205.5 37q221 0 335.5 -110.5t114.5 -307.5h-242q0 90 -45 134t-163 44q-104 0 -158 -53q-39 -39 -45 -150q-2 -35 -2 -100v-168q0 -86 8 -110.5t17.5 -53t23.5 -43t35 -30.5q39 -27 115.5 -27t120.5 13.5t63.5 46t26 64.5 t8.5 93l241 2q-2 -16 -4 -59t-3 -58.5t-5 -48.5t-9 -48t-14 -40q-14 -41 -47 -74q-100 -104 -307 -127l-16 -43q98 -27 98 -113.5t-58.5 -137t-179.5 -50.5q-27 0 -96 9l43 104q37 -6 72 -6q84 0 84 63q0 70 -119 70l41 104q-186 20 -285 127q-121 127 -121 476.5z" />
<glyph unicode="&#xe8;" horiz-adv-x="1122" d="M80 643q0 272 125 406.5t381 134.5q444 0 444 -494q0 -53 -4 -168h-676q0 -178 47 -252.5t199 -74.5q106 0 149 52t43 161h240q0 -231 -114.5 -333t-311.5 -102q-193 0 -302.5 56.5t-164.5 199t-55 414.5zM264 1602h281l78 -218q8 -25 8 -45q0 -53 -58 -53q-87 0 -157 98 zM350 705h438q0 162 -47 215t-158.5 53t-172 -55t-60.5 -213z" />
<glyph unicode="&#xe9;" horiz-adv-x="1122" d="M80 643q0 272 125 406.5t381 134.5q444 0 444 -494q0 -53 -4 -168h-676q0 -178 47 -252.5t199 -74.5q106 0 149 52t43 161h240q0 -231 -114.5 -333t-311.5 -102q-193 0 -302.5 56.5t-164.5 199t-55 414.5zM350 705h438q0 162 -47 215t-158.5 53t-172 -55t-60.5 -213z M510 1339q0 20 8 45l78 218h281l-152 -218q-70 -98 -158 -98q-57 0 -57 53z" />
<glyph unicode="&#xea;" horiz-adv-x="1122" d="M80 643q0 272 125 406.5t381 134.5q444 0 444 -494q0 -53 -4 -168h-676q0 -178 47 -252.5t199 -74.5q106 0 149 52t43 161h240q0 -231 -114.5 -333t-311.5 -102q-193 0 -302.5 56.5t-164.5 199t-55 414.5zM258 1316.5q0 22.5 10 39.5l193 248h213l192 -248 q10 -16 10.5 -38t-17 -41.5t-42.5 -19.5q-78 0 -158 99l-92 114l-92 -114q-80 -98 -158 -99q-27 0 -43 18.5t-16 41zM350 705h438q0 162 -47 215t-158.5 53t-172 -55t-60.5 -213z" />
<glyph unicode="&#xeb;" horiz-adv-x="1122" d="M80 643q0 272 125 406.5t381 134.5q444 0 444 -494q0 -53 -4 -168h-676q0 -178 47 -252.5t199 -74.5q106 0 149 52t43 161h240q0 -231 -114.5 -333t-311.5 -102q-193 0 -302.5 56.5t-164.5 199t-55 414.5zM199 1421q0 80 35.5 109t101 29t101.5 -29t36 -109t-36 -108.5 t-101.5 -28.5t-101 28.5t-35.5 108.5zM350 705h438q0 162 -47 215t-158.5 53t-172 -55t-60.5 -213zM662 1421q0 80 35.5 109t101 29t101.5 -29t36 -109t-36 -108.5t-101.5 -28.5t-101 28.5t-35.5 108.5z" />
<glyph unicode="&#xec;" horiz-adv-x="563" d="M35 1602h280l78 -218q8 -25 8 -45q0 -53 -57 -53q-88 0 -158 98zM150 0v1067h266v-1067h-266z" />
<glyph unicode="&#xed;" horiz-adv-x="563" d="M150 0v1067h266v-1067h-266zM176 1339q0 20 8 45l78 218h281l-152 -218q-70 -98 -158 -98q-57 0 -57 53z" />
<glyph unicode="&#xee;" horiz-adv-x="563" d="M-23 1316.5q0 22.5 11 39.5l192 248h213l193 -248q10 -16 10 -38t-17.5 -41.5t-41.5 -19.5q-78 0 -158 99l-92 114l-92 -114q-80 -98 -158 -99q-27 0 -43.5 18.5t-16.5 41zM150 0v1067h266v-1067h-266z" />
<glyph unicode="&#xef;" horiz-adv-x="563" d="M-88 1421q0 80 36 109t101.5 29t101 -29t35.5 -109t-35.5 -108.5t-101 -28.5t-101.5 28.5t-36 108.5zM150 0v1067h266v-1067h-266zM375 1421q0 80 35.5 109t101.5 29t101.5 -29t35.5 -109t-35.5 -108.5t-101.5 -28.5t-101.5 28.5t-35.5 108.5z" />
<glyph unicode="&#xf0;" horiz-adv-x="1124" d="M63 517q0 101 2.5 147.5t10.5 110t23.5 107.5t44 92t69.5 79q92 68 240 67h280q-10 68 -35 135l-188 -63v156l129 43q-29 51 -94 149h266l47 -74l166 56v-156l-100 -35q76 -199 75 -450v-658q-207 -236 -469 -235q-291 0 -385 159q-47 82 -64.5 175.5t-17.5 194.5z M330 555q0 -168 42 -237.5t158 -69.5q10 2 37 4t35 3t28.5 5t30 7t23.5 9q22 8 49 35v570h-203q-201 0 -200 -326z" />
<glyph unicode="&#xf1;" horiz-adv-x="1173" d="M129 0v1169h199l61 -139l328 152q137 0 238.5 -101.5t101.5 -296.5v-784h-266v748q0 100 -41 137t-115 37l-240 -101v-821h-266zM223 1417q68 68 119 94.5t120.5 26.5t142.5 -43t143.5 -43t119.5 47l95 -102q-121 -121 -232 -121q-76 0 -148.5 42t-137 42t-119.5 -49z " />
<glyph unicode="&#xf2;" d="M66 590q0 270 94 424q109 172 390 172t391 -150.5t110 -445.5q0 -379 -144 -508q-121 -111 -350 -111q-291 0 -397 172q-94 158 -94 447zM246 1602h280l78 -218q8 -25 8 -45q0 -53 -57 -53q-88 0 -158 98zM332 537q0 -135 35 -224q41 -102 190 -102q121 0 178 63 q41 47 47 158q2 33 2 96v107q0 215 -51 258q-59 53 -186 53t-171 -74.5t-44 -228.5v-106z" />
<glyph unicode="&#xf3;" d="M68 590q0 270 96 424q106 172 388 172t391.5 -150.5t109.5 -445.5q0 -379 -144 -508q-121 -111 -350 -111q-293 0 -395 172q-96 158 -96 447zM334 537q0 -135 35 -224q41 -102 190 -102q121 0 178 63q41 47 47 158q2 33 2 96v107q0 215 -49 258q-61 53 -188 53 t-171 -74.5t-44 -228.5v-106zM500 1339q0 20 8 45l78 218h280l-151 -218q-70 -98 -158 -98q-57 0 -57 53z" />
<glyph unicode="&#xf4;" d="M61 590q0 270 95 424q109 172 390 172t391 -150.5t110 -445.5q0 -379 -144 -508q-121 -111 -350 -111q-291 0 -397 172q-94 158 -95 447zM248 1316.5q0 22.5 10 39.5l193 248h213l192 -248q10 -16 10 -38t-17.5 -41.5t-41.5 -19.5q-78 0 -158 99l-92 114l-92 -114 q-80 -98 -158 -99q-27 0 -43 18.5t-16 41zM328 537q0 -135 34 -224q41 -102 191 -102q121 0 178 63q41 47 47 158q2 33 2 96v107q0 215 -51 258q-59 53 -186 53t-171 -74.5t-44 -228.5v-106z" />
<glyph unicode="&#xf5;" d="M66 590q0 270 94 424q109 172 390 172t391 -150.5t110 -445.5q0 -379 -144 -508q-121 -111 -350 -111q-291 0 -397 172q-94 158 -94 447zM186 1421q68 68 119 94.5t121 26.5t142.5 -43t143 -43t119.5 47l95 -102q-121 -121 -232 -121q-76 0 -148.5 42t-137 42t-119.5 -49 zM332 537q0 -135 35 -224q41 -102 190 -102q121 0 178 63q41 47 47 158q2 33 2 96v107q0 215 -51 258q-59 53 -186 53t-171 -74.5t-44 -228.5v-106z" />
<glyph unicode="&#xf6;" d="M66 590q0 270 94 424q109 172 390 172t391 -150.5t110 -445.5q0 -379 -144 -508q-121 -111 -350 -111q-291 0 -397 172q-94 158 -94 447zM188 1421q0 80 36 109t101.5 29t101.5 -29t36 -109t-36 -108.5t-101.5 -28.5t-101.5 28.5t-36 108.5zM332 537q0 -135 35 -224 q41 -102 190 -102q121 0 178 63q41 47 47 158q2 33 2 96v107q0 215 -51 258q-59 53 -186 53t-171 -74.5t-44 -228.5v-106zM651 1421q0 80 36 109t101.5 29t101.5 -29t36 -109t-36 -108.5t-101.5 -28.5t-101.5 28.5t-36 108.5z" />
<glyph unicode="&#xf7;" d="M94 461v248h924v-248h-924zM391 168q0 102 33 134t135.5 32t134 -32t31.5 -134t-31.5 -135t-134 -33t-135.5 33t-33 135zM391 1017.5q0 102.5 33 134.5t135.5 32t134 -32t31.5 -134.5t-31.5 -135t-134 -32.5t-135.5 32.5t-33 135z" />
<glyph unicode="&#xf8;" d="M63 590q0 270 97 424q106 172 395 172q121 0 207 -31l18 37h199l-64 -133q133 -139 133 -493.5t-143 -483.5q-121 -111 -350 -111q-74 0 -149 15l-37 -78h-199l70 147q-176 133 -177 535zM330 537q0 -154 32 -224l295 621q-43 12 -102 12q-137 0 -181 -74.5t-44 -228.5 v-106zM514 213q12 -2 59.5 -2t92.5 19.5t67.5 45t32.5 74.5q16 67 16 178v107q0 94 -4 133z" />
<glyph unicode="&#xf9;" horiz-adv-x="1173" d="M96 385v784h266v-727q0 -195 156 -194l240 129v792h266v-1169h-199l-61 139l-328 -151q-137 0 -238.5 101t-101.5 296zM276 1602h281l78 -218q8 -25 8 -45q0 -53 -57 -53q-88 0 -158 98z" />
<glyph unicode="&#xfa;" horiz-adv-x="1173" d="M96 385v784h266v-727q0 -195 156 -194l240 129v792h266v-1169h-199l-61 139l-328 -151q-137 0 -238.5 101t-101.5 296zM522 1339q0 20 8 45l78 218h281l-152 -218q-70 -98 -157 -98q-57 0 -58 53z" />
<glyph unicode="&#xfb;" horiz-adv-x="1173" d="M96 385v784h266v-727q0 -195 156 -194l240 129v792h266v-1169h-199l-61 139l-328 -151q-137 0 -238.5 101t-101.5 296zM270 1316.5q0 22.5 11 39.5l192 248h213l193 -248q10 -16 10 -38t-17.5 -41.5t-42.5 -19.5q-78 0 -157 99l-92 114l-93 -114q-80 -98 -157 -99 q-27 0 -43.5 18.5t-16.5 41z" />
<glyph unicode="&#xfc;" horiz-adv-x="1173" d="M96 385v784h266v-727q0 -195 156 -194l240 129v792h266v-1169h-199l-61 139l-328 -151q-137 0 -238.5 101t-101.5 296zM211 1421q0 80 36 109t101.5 29t101 -29t35.5 -109t-35.5 -108.5t-101 -28.5t-101.5 28.5t-36 108.5zM674 1421q0 80 35.5 109t101.5 29t101.5 -29 t35.5 -109t-35.5 -108.5t-101.5 -28.5t-101.5 28.5t-35.5 108.5z" />
<glyph unicode="&#xfd;" horiz-adv-x="1101" d="M49 1169h281l209 -813l225 813h280l-444 -1300q-31 -88 -80 -137q-82 -82 -229 -82h-125v239h82q57 0 84.5 19.5t48.5 77.5l20 57zM483 1339q0 20 9 45l77 218h281l-152 -218q-70 -98 -157 -98q-57 0 -58 53z" />
<glyph unicode="&#xfe;" horiz-adv-x="1150" d="M150 -391v1929h266v-565q96 106 258 106q211 0 309 -82q78 -67 94 -260q6 -76 6 -188.5t-4 -175t-16 -132t-40 -110.5t-73 -78q-80 -66 -276 -65l-258 147v-526h-266zM416 350l180 -102q141 0 181 62.5t40 231.5t-40 233.5t-181 64.5h-180v-490z" />
<glyph unicode="&#xff;" horiz-adv-x="1011" d="M8 1169h281l209 -813l225 813h281l-445 -1300q-31 -88 -80 -137q-82 -82 -229 -82h-125v239h82q57 0 84.5 19.5t48.5 77.5l20 57zM131 1421q0 80 36 109t101.5 29t101.5 -29t36 -109t-36 -108.5t-101.5 -28.5t-101.5 28.5t-36 108.5zM594 1421q0 80 36 109t101.5 29 t101 -29t35.5 -109t-35.5 -108.5t-101 -28.5t-101.5 28.5t-36 108.5z" />
<glyph unicode="&#x152;" horiz-adv-x="1978" d="M80 690v78q0 358 137 524t442 166h1254v-254h-676v-342h473l-41 -254h-432v-202q0 -86 39 -119t141 -33h496v-254h-496q-260 0 -364 102q-135 -115 -394 -114q-307 0 -443 164.5t-136 537.5zM365 692q2 -217 32 -297q57 -154 262 -153q178 0 238 102q39 74 47 143 q10 88 10 211v99q0 256 -69 336q-70 84 -225.5 84t-229.5 -87q-53 -63 -61 -221q-4 -51 -4 -141v-76z" />
<glyph unicode="&#x153;" horiz-adv-x="1804" d="M63 590q0 270 97 424q106 172 395 172q240 0 358 -125q123 123 371 123q444 0 445 -494q0 -53 -5 -168h-675q0 -178 47 -252.5t198 -74.5q106 0 149.5 52t43.5 161h239q0 -231 -114.5 -333t-311.5 -102q-272 0 -387 117q-115 -119 -358 -119q-293 0 -395 172 q-96 158 -97 447zM330 537q0 -135 35 -224q41 -102 190 -102q121 0 178 63q41 47 47 158q2 33 2 96v107q0 215 -49 258q-61 53 -188 53t-171 -74.5t-44 -228.5v-106zM1049 705h438q0 162 -47 215t-159 53t-172 -55t-60 -213z" />
<glyph unicode="&#x178;" horiz-adv-x="1171" d="M6 1458h309l273 -588l268 588h309l-438 -860v-598h-283v598zM215 1784q0 80 36 108.5t101.5 28.5t101 -28.5t35.5 -108.5t-35.5 -108.5t-101 -28.5t-101.5 28.5t-36 108.5zM678 1784q0 80 36 108.5t101.5 28.5t101 -28.5t35.5 -108.5t-35.5 -108.5t-101 -28.5 t-101.5 28.5t-36 108.5z" />
<glyph unicode="&#x2c6;" horiz-adv-x="1024" d="M203 1296.5q0 22.5 10 38.5l193 248h212l193 -248q10 -16 10 -37.5t-17.5 -41t-41.5 -19.5q-78 0 -158 98l-92 115l-92 -115q-80 -98 -158 -98q-27 0 -43 18.5t-16 41z" />
<glyph unicode="&#x2dc;" horiz-adv-x="1024" d="M141 1401q68 68 119 94.5t121 26.5t142.5 -43t143 -43t119.5 47l95 -103q-121 -121 -232 -120q-76 0 -148.5 41.5t-137 41.5t-119.5 -49z" />
<glyph unicode="&#x2000;" horiz-adv-x="1039" />
<glyph unicode="&#x2001;" horiz-adv-x="2079" />
<glyph unicode="&#x2002;" horiz-adv-x="1039" />
<glyph unicode="&#x2003;" horiz-adv-x="2079" />
<glyph unicode="&#x2004;" horiz-adv-x="693" />
<glyph unicode="&#x2005;" horiz-adv-x="519" />
<glyph unicode="&#x2006;" horiz-adv-x="346" />
<glyph unicode="&#x2007;" horiz-adv-x="346" />
<glyph unicode="&#x2008;" horiz-adv-x="259" />
<glyph unicode="&#x2009;" horiz-adv-x="415" />
<glyph unicode="&#x200a;" horiz-adv-x="115" />
<glyph unicode="&#x2010;" horiz-adv-x="872" d="M121 461v248h631v-248h-631z" />
<glyph unicode="&#x2011;" horiz-adv-x="872" d="M121 461v248h631v-248h-631z" />
<glyph unicode="&#x2012;" horiz-adv-x="872" d="M121 461v248h631v-248h-631z" />
<glyph unicode="&#x2013;" d="M102 461v248h908v-248h-908z" />
<glyph unicode="&#x2014;" horiz-adv-x="2103" d="M121 463v256h1861v-256h-1861z" />
<glyph unicode="&#x2018;" horiz-adv-x="559" d="M137 1350v106q0 72 40 136.5t85 80.5v-131q0 -35 12.5 -50t61.5 -15t70.5 -21.5t21.5 -108.5t-27.5 -115t-117.5 -28t-118 28t-28 118z" />
<glyph unicode="&#x2019;" horiz-adv-x="559" d="M137 1320q0 87 28 114.5t118 27.5t117.5 -27.5t27.5 -117.5v-107q0 -72 -40 -136t-85 -81v131q0 35 -12 50.5t-61.5 15.5t-71 21.5t-21.5 108.5z" />
<glyph unicode="&#x201a;" horiz-adv-x="555" d="M137 114q0 87 28 114.5t118 27.5t117.5 -27.5t27.5 -117.5v-107q0 -72 -40 -136.5t-85 -80.5v131q0 35 -12 50.5t-61.5 15.5t-71 21.5t-21.5 108.5z" />
<glyph unicode="&#x201c;" horiz-adv-x="987" d="M137 1350v106q0 72 40 136.5t85 80.5v-131q0 -35 12.5 -50t61.5 -15t70.5 -21.5t21.5 -108.5t-27.5 -115t-117.5 -28t-118 28t-28 118zM575 1350v106q0 72 40 136.5t85 80.5v-131q0 -35 12.5 -50t61.5 -15t70.5 -21.5t21.5 -108.5t-27.5 -115t-117.5 -28t-118 28t-28 118 z" />
<glyph unicode="&#x201d;" horiz-adv-x="987" d="M137 1320q0 87 28 114.5t118 27.5t117.5 -27.5t27.5 -117.5v-107q0 -72 -40 -136t-85 -81v131q0 35 -12 50.5t-61.5 15.5t-71 21.5t-21.5 108.5zM575 1320q0 87 28 114.5t118 27.5t117.5 -27.5t27.5 -117.5v-107q0 -72 -40 -136t-85 -81v131q0 35 -12 50.5t-61.5 15.5 t-71 21.5t-21.5 108.5z" />
<glyph unicode="&#x201e;" horiz-adv-x="993" d="M137 114q0 87 28 114.5t118 27.5t117.5 -27.5t27.5 -117.5v-107q0 -72 -40 -136.5t-85 -80.5v131q0 35 -12 50.5t-61.5 15.5t-71 21.5t-21.5 108.5zM575 114q0 87 28 114.5t118 27.5t117.5 -27.5t27.5 -117.5v-107q0 -72 -40 -136.5t-85 -80.5v131q0 35 -12 50.5 t-61.5 15.5t-71 21.5t-21.5 108.5z" />
<glyph unicode="&#x2022;" horiz-adv-x="1009" d="M170 684q0 172 77 253t257 81t257 -81t77 -253t-77 -253t-257 -81t-257 81t-77 253z" />
<glyph unicode="&#x2026;" horiz-adv-x="1812" d="M129 141.5q0 102.5 33 134t135 31.5t134 -31.5t32 -134t-32 -135.5t-134 -33t-135 33t-33 135.5zM662 141.5q0 102.5 32.5 134t135 31.5t134 -31.5t31.5 -134t-31.5 -135.5t-134 -33t-135 33t-32.5 135.5zM1190 141.5q0 102.5 32.5 134t135 31.5t134.5 -31.5t32 -134 t-32 -135.5t-134.5 -33t-135 33t-32.5 135.5z" />
<glyph unicode="&#x202f;" horiz-adv-x="415" />
<glyph unicode="&#x2039;" horiz-adv-x="716" d="M137 568.5q0 62.5 90 152.5l394 350v-317l-234 -191l234 -190v-318l-398 355q-86 96 -86 158.5z" />
<glyph unicode="&#x203a;" horiz-adv-x="716" d="M137 55v318l234 190l-234 191v317l398 -354q86 -96 86 -158.5t-91 -152.5z" />
<glyph unicode="&#x205f;" horiz-adv-x="519" />
<glyph unicode="&#x20ac;" horiz-adv-x="1110" d="M20 481v197h91v141h-91v197h101q29 225 142.5 339.5t331.5 114.5t345 -159q78 -94 90 -338h-264q-2 14 -7 58t-8 59.5t-13.5 47t-24.5 44.5q-41 35 -103 35q-172 0 -209 -201h170v-197h-184v-141h184v-197h-178q31 -240 217 -239q125 0 148 106q12 55 12 124t2 93h264 q-4 -113 -8 -161t-25.5 -126.5t-62.5 -130.5q-127 -160 -330 -159q-252 0 -364.5 120.5t-130.5 372.5h-95z" />
<glyph unicode="&#x2122;" horiz-adv-x="1892" d="M92 1284v174h645v-174h-225v-700h-195v700h-225zM872 584v874h195l213 -399q18 -33 36.5 -33t37.5 35l213 397h194v-874h-194v516l-164 -322q-29 -53 -88.5 -53t-83.5 53l-164 322v-516h-195z" />
<glyph unicode="&#x25fc;" horiz-adv-x="1167" d="M0 0v1167h1167v-1167h-1167z" />
<glyph unicode="&#xfb01;" horiz-adv-x="1232" d="M51 922v202h111v113q0 125 80 215t231 90h172v-225h-125q-92 0 -92 -96v-97h655v-1124h-266v922h-389v-922h-266v922h-111zM799 1458q0 94 29.5 124t125 30t125 -30t29.5 -125t-29.5 -124.5t-124 -29.5t-125 30.5t-30.5 124.5z" />
<glyph unicode="&#xfb02;" horiz-adv-x="1224" d="M51 922v202h111v113q0 125 80 214t231 89h610v-1540h-266v1317h-297q-92 0 -92 -96v-97h217v-202h-217v-922h-266v922h-111z" />
<glyph unicode="&#xfb03;" horiz-adv-x="1865" d="M51 922v202h111v113q0 125 80 215t231 90h172v-225h-125q-92 0 -92 -96v-97h387v113q0 125 80 215t231 90h172v-225h-124q-92 0 -93 -96v-97h656v-1124h-267v922h-389v-922h-266v922h-387v-922h-266v922h-111zM1452 1458q0 94 29.5 124t126 30t125 -30t28.5 -125 t-29.5 -124.5t-125 -29.5t-125 30.5t-29.5 124.5z" />
<glyph unicode="&#xfb04;" horiz-adv-x="1855" d="M51 922v202h111v113q0 125 80 215t231 90h172v-225h-125q-92 0 -92 -96v-97h385v113q0 125 80 214t231 89h611v-1540l-267 -2v1319h-297q-92 0 -92 -96v-97h217v-202h-217v-922h-266v922h-385v-922h-266v922h-111z" />
</font>
</defs>
</svg>
